<?xml version="1.0" standalone="no"?>
<!DOCTYPE svg PUBLIC "-//W3C//DTD SVG 1.1//EN" "http://www.w3.org/Graphics/SVG/1.1/DTD/svg11.dtd" >
<svg xmlns="http://www.w3.org/2000/svg">
<metadata>
This is a custom SVG webfont generated by Font Squirrel.
Copyright   : Copyright  2012 by Librerias Gandhi SA de CV All rights reserved
Designer    : Cristobal Henestrosa  Raul Plancarte in collaboration with David Kimura  Gabriela Varela
Foundry     : Cristobal Henestrosa  Raul Plancarte in collaboration with David Kimura  Gabriela Varela
Foundry URL : httpwwwgandhicommx
</metadata>
<defs>
<font id="GandhiSansRegular" horiz-adv-x="1126" >
<font-face units-per-em="2048" ascent="1567" descent="-481" />
<missing-glyph horiz-adv-x="471" />
<glyph unicode=" "  horiz-adv-x="471" />
<glyph unicode="&#x09;" horiz-adv-x="471" />
<glyph unicode="&#xa0;" horiz-adv-x="471" />
<glyph unicode="!" horiz-adv-x="573" d="M162 96q0 51 37 88t88 37t88 -37t37 -88t-37 -88t-88 -37t-88 37t-37 88zM174 1372h225l-65 -975h-94z" />
<glyph unicode="&#x22;" horiz-adv-x="763" d="M143 1323h170l-43 -459h-84zM451 1323h170l-43 -459h-84z" />
<glyph unicode="#" d="M66 383v104h229l47 277h-250v104h266l56 332h106l-55 -332h283l55 332h106l-55 -332h221v-104h-237l-47 -277h258v-104h-275l-55 -332h-107l56 332h-283l-55 -332h-107l56 332h-213zM401 487h283l47 277h-282z" />
<glyph unicode="$" d="M141 63l23 150q176 -100 350 -104v501q-16 6 -49 23q-145 68 -220 145.5t-75 208.5q0 152 95 247t257 114v219h105v-215q170 -8 307 -84l-27 -148q-135 82 -280 88v-467q80 -39 130 -68.5t109.5 -77.5t88 -110.5t28.5 -140.5q0 -150 -97.5 -249t-267.5 -120v-208h-104 v204q-223 4 -373 92zM336 1006q0 -70 42 -115t144 -98v411q-186 -32 -186 -198zM618 117q90 16 143.5 70.5t53.5 132t-48 132t-149 107.5v-442z" />
<glyph unicode="%" horiz-adv-x="1601" d="M82 1022q0 156 87 243t239 87q143 0 227 -89.5t84 -228.5q0 -160 -87 -246t-241 -86q-141 0 -225 91.5t-84 228.5zM211 1024q0 -113 55.5 -166t136.5 -53q84 0 135.5 55t51.5 170q0 113 -54.5 166t-138.5 53q-82 0 -134 -54t-52 -171zM266 41l971 1311l98 -70l-970 -1311 zM883 291q0 156 87 243t238 87q143 0 227.5 -89.5t84.5 -228.5q0 -160 -87 -246t-241 -86q-141 0 -225 91.5t-84 228.5zM1012 293q0 -113 55 -166t137 -53q84 0 135.5 55t51.5 170q0 113 -54.5 166t-138.5 53q-82 0 -134 -54t-52 -171z" />
<glyph unicode="&#x26;" horiz-adv-x="1409" d="M76 336q0 274 319 414q-68 84 -98.5 146t-30.5 136q0 131 88 218t240 87q141 0 228 -77.5t87 -217.5q0 -201 -258 -368l252 -301q123 154 240 366h168q-139 -242 -320 -473l39 -45q51 -61 84 -76.5t103 -15.5h61v-129q-66 -10 -137 -10q-128 0 -230 127l-28 35 q-180 -180 -398 -181q-170 0 -289.5 96.5t-119.5 268.5zM229 334q0 -104 73 -167t194 -63q164 0 303 150l-322 395q-117 -45 -182.5 -131t-65.5 -184zM420 1038q0 -90 153 -270q186 119 187 274q0 68 -44 119t-122 51q-72 0 -123 -47t-51 -127z" />
<glyph unicode="'" horiz-adv-x="456" d="M143 1323h170l-43 -459h-84z" />
<glyph unicode="(" horiz-adv-x="907" d="M133 643q0 303 158 571.5t422 395.5l51 -105q-215 -125 -346 -360.5t-131 -501.5t131 -501.5t346 -360.5l-51 -105q-264 127 -422 395.5t-158 571.5z" />
<glyph unicode=")" horiz-adv-x="907" d="M143 -219q215 125 346.5 360.5t131.5 501.5t-131.5 501.5t-346.5 360.5l52 105q264 -127 421.5 -395.5t157.5 -571.5t-157.5 -571.5t-421.5 -395.5z" />
<glyph unicode="*" horiz-adv-x="880" d="M82 862l276 135l-276 133l61 107l256 -170l-20 305h123l-21 -305l256 170l62 -107l-277 -133l277 -135l-62 -106l-256 170l21 -305h-123l20 305l-256 -170z" />
<glyph unicode="+" d="M102 569v107h406v401h110v-401h406v-107h-406v-403h-110v403h-406z" />
<glyph unicode="," horiz-adv-x="512" d="M80 -233q111 145 110 268q0 92 -28 174h178q23 -53 22 -125q1 -201 -200 -375z" />
<glyph unicode="-" horiz-adv-x="716" d="M72 451v122h573v-122h-573z" />
<glyph unicode="." horiz-adv-x="512" d="M131 96q0 51 37 88t88 37t88 -37t37 -88t-37 -88t-88 -37t-88 37t-37 88z" />
<glyph unicode="/" horiz-adv-x="1097" d="M35 -481l897 2068h131l-897 -2068h-131z" />
<glyph unicode="0" d="M96 662q0 307 122 498.5t345 191.5t345 -191.5t122 -498.5q0 -315 -127 -503t-340 -188q-211 0 -339 188.5t-128 502.5zM256 662q0 -252 79 -406t228.5 -154t228 154t78.5 406q0 258 -81.5 408.5t-225.5 150.5q-147 0 -227 -149.5t-80 -409.5z" />
<glyph unicode="1" d="M211 0v115l307 8v1055l-307 -33v115l381 75h88v-1212l289 -8v-115h-758z" />
<glyph unicode="2" d="M113 0v63q336 309 502.5 523.5t166.5 392.5q0 111 -67.5 172t-171.5 61q-193 0 -355 -155l-65 114q166 180 426 181q182 0 288.5 -93.5t106.5 -261.5q0 -109 -48 -224.5t-135 -229t-172 -203.5t-196 -193h596l-8 -147h-868z" />
<glyph unicode="3" d="M123 131l92 115q137 -137 311 -137q133 0 210 68.5t77 178.5q0 90 -59.5 147.5t-144.5 79t-197 21.5h-84v129q428 31 428 289q0 84 -55.5 137t-151.5 53q-94 0 -188.5 -46t-155.5 -109l-66 114q76 80 188.5 130.5t235.5 50.5q154 0 258.5 -82t104.5 -240q0 -115 -71 -206 t-185 -130q135 -16 221 -105t86 -222q-2 -172 -128 -284t-323 -112q-113 0 -222 44t-181 116z" />
<glyph unicode="4" d="M55 379v65l693 891h96v-819h217v-137h-217v-379h-158v379h-631zM283 516h403v528z" />
<glyph unicode="5" d="M139 133l90 115q143 -139 322 -139q117 0 202 71.5t85 192.5q0 139 -114 205.5t-304 66.5h-215l61 678h649l-8 -145h-510l-30 -387h71q106 0 198.5 -18.5t177.5 -61.5t134 -128t49 -204q0 -178 -125.5 -293t-328.5 -115q-236 0 -404 162z" />
<glyph unicode="6" d="M117 504q0 330 222 559t558 289l31 -131q-465 -88 -604 -459q127 61 282 61q195 0 303.5 -105.5t108.5 -291.5t-122 -320.5t-327 -134.5q-215 0 -333.5 144.5t-118.5 388.5zM276 496q0 -170 77 -280t210 -110q135 0 215 87.5t80 214.5q0 131 -72.5 202.5t-199.5 71.5 q-162 0 -303 -76q-6 -58 -7 -110z" />
<glyph unicode="7" d="M129 1176l10 147h867v-92l-613 -1231h-176l604 1176h-692z" />
<glyph unicode="8" d="M127 317q0 123 74.5 225.5t193.5 155.5q-229 131 -229 326q0 141 117.5 234.5t279.5 93.5q176 0 291 -87t115 -233q0 -213 -254 -327q143 -78 212.5 -160t69.5 -211q0 -164 -124.5 -263.5t-305.5 -99.5q-207 0 -323.5 93t-116.5 253zM287 330q0 -106 74.5 -167t197.5 -61 q127 0 206 61t79 167q0 92 -77 156.5t-237 144.5q-109 -43 -176 -125t-67 -176zM328 1026q0 -80 57 -131t203 -125q225 98 225 256q0 92 -72.5 142.5t-173 50.5t-170 -52.5t-69.5 -140.5z" />
<glyph unicode="9" d="M109 897q0 186 121.5 320.5t326.5 134.5q215 0 334 -144.5t119 -388.5q0 -330 -222.5 -559t-558.5 -289l-30 131q467 88 604 457q-133 -59 -283 -59q-195 0 -303 105.5t-108 291.5zM268 915q0 -131 73 -202.5t200 -71.5q160 0 301 76q8 49 8 110q0 170 -77 280t-210 110 q-135 0 -215 -87.5t-80 -214.5z" />
<glyph unicode=":" horiz-adv-x="512" d="M131 96q0 51 37 88t88 37t88 -37t37 -88t-37 -88t-88 -37t-88 37t-37 88zM131 731q0 51 37 88t88 37t88 -37t37 -88t-37 -88t-88 -37t-88 37t-37 88z" />
<glyph unicode=";" horiz-adv-x="512" d="M80 -233q113 154 113 274q0 80 -41 168h182q29 -49 28 -125q1 -201 -200 -375zM131 731q0 51 37 88t88 37t88 -37t37 -88t-37 -88t-88 -37t-88 37t-37 88z" />
<glyph unicode="&#x3c;" d="M154 573v103l749 399l55 -100l-663 -350l663 -351l-55 -100z" />
<glyph unicode="=" d="M102 375v106h922v-106h-922zM102 764v106h922v-106h-922z" />
<glyph unicode="&#x3e;" d="M168 268l663 350l-663 351l55 100l750 -399v-103l-750 -399z" />
<glyph unicode="?" horiz-adv-x="839" d="M102 1303q115 98 297 98q166 0 262.5 -87t96.5 -202q0 -88 -37 -155.5t-89 -111.5t-104.5 -85t-89.5 -94.5t-37 -116.5q0 -68 9 -111h-140q-18 55 -18 135q0 82 35 146.5t85 106.5t101 80t86 87t35 109q0 68 -61.5 116t-135.5 48q-61 0 -130.5 -21.5t-110.5 -60.5z M223 96q0 51 37 88t88 37t88 -37t37 -88t-37 -88t-88 -37t-88 37t-37 88z" />
<glyph unicode="@" horiz-adv-x="1935" d="M96 451q0 401 242 661t663 260q158 0 302.5 -47t263.5 -138t190.5 -243.5t71.5 -345.5q0 -274 -140.5 -448.5t-369.5 -174.5q-154 0 -184 123q-119 -127 -283 -127q-117 0 -191.5 60.5t-74.5 171.5q0 53 21.5 98t50 77t84 59.5t91 42t108.5 30.5t99.5 21.5t96.5 17.5v135 q0 90 -37 134t-146 44q-143 0 -307 -82l-24 119q78 45 186.5 72.5t196.5 27.5q287 0 286 -288v-559q0 -66 78 -66q154 0 255 140.5t101 373.5q0 221 -104 380t-265 231.5t-356 72.5q-356 0 -579 -228.5t-223 -604.5q0 -381 226 -601.5t626 -220.5q336 0 598 195l49 -74 q-123 -94 -298 -151.5t-351 -57.5q-238 0 -423.5 71t-299 195.5t-172 287.5t-58.5 356zM743 207q0 -47 34 -76t85 -29q70 0 145.5 44t129.5 106v184q-190 -35 -292 -87t-102 -142z" />
<glyph unicode="A" horiz-adv-x="1310" d="M61 0l545 1372h105l538 -1372h-184l-147 393h-537l-150 -393h-170zM434 532h432l-213 570z" />
<glyph unicode="B" horiz-adv-x="1169" d="M174 0v1372h385q215 0 321.5 -76.5t106.5 -248.5q0 -113 -57.5 -193t-155.5 -117q137 -23 215 -117t78 -235q0 -174 -122 -279.5t-333 -105.5h-438zM338 137h258q295 0 295 252q0 127 -92 195.5t-260 68.5h-201v-516zM338 791h178q137 0 217 63.5t80 177.5 q0 109 -66.5 156t-197.5 47h-211v-444z" />
<glyph unicode="C" horiz-adv-x="1294" d="M113 668q0 340 187 536.5t497 196.5q213 0 377 -80l-29 -156q-158 86 -338 86q-248 0 -384 -154.5t-136 -428.5q0 -254 146.5 -399.5t391.5 -145.5q203 0 344 88l23 -150q-76 -41 -187.5 -65.5t-209.5 -24.5q-315 0 -498.5 187.5t-183.5 509.5z" />
<glyph unicode="D" horiz-adv-x="1423" d="M174 0v1372h438q367 0 533 -185.5t166 -498.5q0 -137 -39 -258t-119 -218t-214 -154.5t-310 -57.5h-455zM338 137h240q281 0 420 153.5t139 397.5q0 258 -133.5 402.5t-411.5 144.5h-254v-1098z" />
<glyph unicode="E" horiz-adv-x="1054" d="M174 0v1372h772v-137h-608v-444h489v-138h-489v-516h614v-137h-778z" />
<glyph unicode="F" horiz-adv-x="1030" d="M174 0v1372h774v-137h-610v-453h506v-139h-506v-643h-164z" />
<glyph unicode="G" horiz-adv-x="1402" d="M113 664q0 344 184 540.5t524 196.5q231 0 408 -90l-31 -152q-162 88 -364 88q-268 0 -407.5 -149.5t-139.5 -433.5q0 -260 149.5 -401.5t397.5 -141.5q154 0 262 41v373h-265v137h429v-613q-211 -88 -451 -88q-317 0 -506.5 182.5t-189.5 510.5z" />
<glyph unicode="H" horiz-adv-x="1468" d="M174 0v1372h164v-584h792v584h164v-1372h-164v651h-792v-651h-164z" />
<glyph unicode="I" horiz-adv-x="512" d="M174 0v1372h164v-1372h-164z" />
<glyph unicode="J" horiz-adv-x="534" d="M-41 -106q143 68 190.5 155.5t47.5 274.5v1048h163v-1036q0 -231 -72.5 -358.5t-264.5 -200.5z" />
<glyph unicode="K" horiz-adv-x="1234" d="M174 0v1372h164v-1372h-164zM379 711l563 661h203l-576 -649l441 -535q33 -39 54 -49t62 -10h27v-129q-49 -10 -82 -10q-66 0 -107.5 26.5t-93.5 89.5z" />
<glyph unicode="L" horiz-adv-x="1054" d="M174 0v1372h164v-1237h635v-135h-799z" />
<glyph unicode="M" horiz-adv-x="1701" d="M174 0v1372h197l485 -1118l490 1118h182v-1372h-164v1038l-461 -1038h-102l-463 1047v-1047h-164z" />
<glyph unicode="N" horiz-adv-x="1421" d="M174 0v1372h186l723 -991v991h164v-1372h-94l-815 1118v-1118h-164z" />
<glyph unicode="O" horiz-adv-x="1482" d="M113 692q0 190 64.5 347t209.5 259.5t352 102.5q309 0 470 -201t161 -506q0 -313 -161 -518t-470 -205q-209 0 -354 102.5t-208.5 261.5t-63.5 357zM291 692q0 -256 114.5 -416.5t333.5 -160.5t336 159.5t117 419.5q0 254 -115.5 407.5t-337.5 153.5 q-219 0 -333.5 -158.5t-114.5 -404.5z" />
<glyph unicode="P" horiz-adv-x="1136" d="M174 0v1372h406q209 0 326.5 -91t117.5 -277q0 -199 -130 -315t-392 -116h-164v-573h-164zM338 711h164q348 0 348 293q0 231 -307 231h-205v-524z" />
<glyph unicode="Q" horiz-adv-x="1482" d="M113 692.5q0 190.5 64.5 347t209.5 259t352 102.5q309 0 470 -201t161 -506q0 -274 -125 -469.5t-366 -240.5q129 -176 212 -249t164 -73h58v-127q-46 -16 -101 -16q-66 0 -137 40t-143 115.5t-124 140t-120 158.5q-193 12 -326 117t-191 258.5t-58 344zM291 692 q0 -256 114.5 -416.5t333.5 -160.5t336 159.5t117 419.5q0 254 -115.5 407.5t-337.5 153.5q-219 0 -333.5 -158.5t-114.5 -404.5z" />
<glyph unicode="R" horiz-adv-x="1222" d="M174 0v1372h406q205 0 320.5 -93t115.5 -265q0 -147 -76 -252t-233 -139q66 -35 120 -131l179 -293q41 -70 100 -70h45v-129q-45 -10 -76 -10q-129 0 -211 133l-217 360q-29 47 -44 67.5t-50 38t-88 17.5h-127v-606h-164zM338 750h225q283 0 283 264q0 221 -307 221h-201 v-485z" />
<glyph unicode="S" horiz-adv-x="1028" d="M88 68l23 153q182 -108 361 -108h3q125 0 203 63.5t78 175.5q0 31 -6.5 57.5t-28 51t-34.5 40t-54 40t-60.5 36t-78 41t-82.5 41.5q-145 76 -220 158t-75 215q0 176 119.5 272.5t306.5 96.5q207 0 338 -88l-27 -152q-137 98 -305 99q-121 0 -193.5 -60.5t-72.5 -148.5 q0 -84 58 -139.5t204 -129.5q78 -39 111.5 -57t98 -62.5t94.5 -81t55.5 -96t25.5 -127.5q0 -174 -126 -280.5t-321 -106.5q-225 0 -395 97z" />
<glyph unicode="T" horiz-adv-x="1277" d="M92 1235v137h1094v-137h-465v-1235h-164v1235h-465z" />
<glyph unicode="U" horiz-adv-x="1374" d="M164 455v917h164v-891q0 -176 93 -270t273 -94q352 0 353 364v891h163v-917q0 -229 -143 -356.5t-379 -127.5q-233 0 -378.5 125t-145.5 359z" />
<glyph unicode="V" horiz-adv-x="1277" d="M61 1372h175l409 -1081l395 1081h177l-531 -1372h-92z" />
<glyph unicode="W" horiz-adv-x="1902" d="M61 1372h172l345 -1089l294 837l-92 252h183l370 -1089l334 1089h174l-469 -1372h-86l-336 911l-332 -911h-96z" />
<glyph unicode="X" horiz-adv-x="1282" d="M72 0l475 729l-424 643h194l332 -516l324 516h188l-428 -649l477 -723h-192l-383 594l-375 -594h-188z" />
<glyph unicode="Y" horiz-adv-x="1239" d="M61 1372h189l371 -676l378 676h179l-480 -823v-549h-163v549z" />
<glyph unicode="Z" horiz-adv-x="1245" d="M102 0v82l781 1153h-742v137h969v-86l-784 -1149h807v-137h-1031z" />
<glyph unicode="[" horiz-adv-x="835" d="M164 -322v1942h549v-115h-398v-1712h398v-115h-549z" />
<glyph unicode="\" horiz-adv-x="1097" d="M35 1587h131l897 -2068h-131z" />
<glyph unicode="]" horiz-adv-x="835" d="M123 -207h397v1712h-397v115h549v-1942h-549v115z" />
<glyph unicode="^" d="M113 602l399 750h102l400 -750l-101 -55l-350 663l-350 -663z" />
<glyph unicode="_" d="M-10 -219h1147v-107h-1147v107z" />
<glyph unicode="`" horiz-adv-x="819" d="M227 1485l179 41l186 -346l-70 -37z" />
<glyph unicode="a" horiz-adv-x="985" d="M76 203q0 53 21.5 98t50 77t84 59.5t91 42t108.5 30.5t99.5 21.5t96.5 17.5v135q0 90 -37 134t-146 44q-143 0 -307 -82l-24 119q176 100 383 100q287 0 286 -288v-555q0 -43 19.5 -55.5t60.5 -12.5h47v-86q-70 -18 -157 -18q-115 0 -123 120q-115 -133 -287 -133 q-117 0 -191.5 60.5t-74.5 171.5zM233 207q0 -47 34 -76t85 -29q70 0 145.5 44t129.5 106v184q-190 -35 -292 -87t-102 -142z" />
<glyph unicode="b" horiz-adv-x="1112" d="M152 -29v1479l155 37v-621q142 133 314 133q182 0 288.5 -140t106.5 -353q0 -258 -128 -396.5t-343 -138.5q-150 0 -277 72l-55 -72h-61zM307 172q96 -66 238 -66q147 0 229 98.5t82 295.5q0 172 -68.5 264t-201.5 92q-152 0 -279 -139v-545z" />
<glyph unicode="c" horiz-adv-x="968" d="M96 465q0 238 123 386t367 148q160 0 274 -73l-33 -123q-119 59 -239 59q-164 0 -248 -106.5t-84 -284.5q0 -174 87 -267t257 -93q141 0 256 65l27 -123q-125 -82 -303 -82q-209 0 -346.5 125t-137.5 369z" />
<glyph unicode="d" horiz-adv-x="1112" d="M96 465q0 258 129 396t344 138q121 0 236 -53v510l156 31v-1487h-156v102q-139 -131 -311 -131q-182 0 -290 140.5t-108 353.5zM256 471q0 -170 67.5 -264t198.5 -94q154 0 283 141v545q-106 63 -234 63q-147 0 -231 -98t-84 -293z" />
<glyph unicode="e" horiz-adv-x="1021" d="M96 467q0 246 132 389t333 143q365 0 365 -366q0 -59 -8 -125h-664v-41q0 -182 95 -270t251 -88q152 0 287 84l26 -123q-133 -98 -340 -99q-211 0 -344 129t-133 367zM274 627h486q4 25 4 43q0 204 -201 204h-2q-111 0 -184.5 -64t-102.5 -183z" />
<glyph unicode="f" horiz-adv-x="673" d="M45 844v127h158v88q0 209 111.5 318.5t271.5 109.5q47 0 84 -10l-17 -123h-24q-135 0 -203 -67.5t-68 -225.5v-90h260v-127h-260v-844h-155v844h-158z" />
<glyph unicode="g" horiz-adv-x="1112" d="M96 463q0 258 130 397t343 139q205 0 392 -96v-962q0 -422 -482 -422q-182 0 -342 59l29 137q149 -59 321 -59q156 0 238 64.5t82 236.5v145q-141 -131 -318 -131q-182 0 -287.5 141.5t-105.5 350.5zM256 471q0 -168 67.5 -265t194.5 -97q80 0 163 47t124 96v553 q-100 59 -230 59q-160 0 -239.5 -106.5t-79.5 -286.5z" />
<glyph unicode="h" horiz-adv-x="1110" d="M152 0v1456l155 31v-625q152 137 336 137q156 0 239 -90t83 -245v-664h-156v641q0 98 -53.5 156.5t-153.5 58.5q-156 0 -295 -139v-717h-155z" />
<glyph unicode="i" horiz-adv-x="458" d="M115 1317q0 45 33.5 77.5t80.5 32.5t81 -32.5t34 -77.5t-34 -78t-81 -33t-80.5 33t-33.5 78zM152 0v969l155 30v-999h-155z" />
<glyph unicode="j" horiz-adv-x="477" d="M-129 -350h41q131 0 194.5 71.5t63.5 223.5v1024l156 30v-1052q0 -213 -100.5 -319.5t-260.5 -106.5q-51 0 -86 10zM133 1327q0 45 34 78t81 33t80.5 -33t33.5 -78t-33.5 -77.5t-80.5 -32.5t-81 32.5t-34 77.5z" />
<glyph unicode="k" horiz-adv-x="1030" d="M152 0v1450l155 37v-1487h-155zM358 530l385 441h203l-414 -434l289 -383q51 -66 164 -66v-86q-51 -20 -106 -20q-74 0 -113 23.5t-78 74.5z" />
<glyph unicode="l" horiz-adv-x="458" d="M152 0v1450l155 37v-1487h-155z" />
<glyph unicode="m" horiz-adv-x="1703" d="M152 0v969l155 30v-137q156 137 324 137q203 0 278 -163q173 163 344 163h2q303 -2 304 -344v-655h-156v631q0 221 -180 223q-82 0 -158 -43t-125 -98v-713h-156v635q0 221 -190 221q-147 0 -287 -139v-717h-155z" />
<glyph unicode="n" horiz-adv-x="1110" d="M152 0v969l155 30v-137q152 137 336 137q156 0 239 -90t83 -245v-664h-156v641q0 98 -53.5 156.5t-153.5 58.5q-156 0 -295 -139v-717h-155z" />
<glyph unicode="o" horiz-adv-x="1118" d="M96 485q0 227 121 370.5t342 143.5t342 -143t121 -371q0 -236 -126 -375t-337 -139q-209 0 -336 140.5t-127 373.5zM260 485q0 -174 78 -280.5t221 -106.5q145 0 222 106.5t77 280.5q0 178 -81 282.5t-218 104.5q-141 0 -220 -103t-79 -284z" />
<glyph unicode="p" horiz-adv-x="1112" d="M152 -453v1422l155 30v-135q147 135 309 135q184 0 292 -136t108 -357q0 -256 -128 -395.5t-339 -139.5q-119 1 -242 52v-476h-155zM307 172q98 -66 242 -66q141 0 224 97.5t83 300.5q0 166 -66.5 260t-195.5 94q-166 0 -287 -141v-545z" />
<glyph unicode="q" horiz-adv-x="1112" d="M96 475q0 246 128 385t343 139q197 0 394 -94v-1358h-156v555q-145 -131 -309 -131q-184 0 -292 140.5t-108 363.5zM256 483q0 -370 272 -370q80 0 158 45t119 96v549q-98 61 -234 61q-154 0 -234.5 -104.5t-80.5 -276.5z" />
<glyph unicode="r" horiz-adv-x="745" d="M152 0v969l155 30v-202q61 68 96 101.5t93 67.5q59 34 116 34h2q56 0 86 -31l-18 -140q-33 6 -59 7q-72 0 -141.5 -42t-174.5 -147v-647h-155z" />
<glyph unicode="s" horiz-adv-x="827" d="M76 45l28 131q51 -31 130 -54.5t147 -23.5q94 0 152.5 39t58.5 119q0 57 -43 91t-146 73q-74 29 -109.5 46t-87.5 52t-76 84t-24 113q0 135 97.5 209.5t249.5 74.5q154 0 252 -61l-29 -129q-102 59 -230 59q-84 0 -137 -36.5t-53 -102.5q0 -25 9 -45t20.5 -32.5t39 -28 t42 -21.5t55.5 -22.5t57 -22.5q63 -27 96 -43t79 -51t66.5 -83.5t20.5 -111.5q0 -139 -106.5 -218t-264 -79t-294.5 74z" />
<glyph unicode="t" horiz-adv-x="765" d="M45 844v127h166l53 256h103v-256h313v-127h-313v-592q0 -147 122 -148q84 0 179 46l22 -121q-92 -57 -231 -58q-129 0 -188.5 69t-59.5 212v592h-166z" />
<glyph unicode="u" horiz-adv-x="1081" d="M131 326v645h156v-652q0 -210 184 -210h2q170 0 301 145v717h156v-971h-156v104q-152 -133 -336 -133q-147 0 -227 90.5t-80 264.5z" />
<glyph unicode="v" horiz-adv-x="1019" d="M55 971h176l285 -742l277 742h172l-400 -971h-112z" />
<glyph unicode="w" horiz-adv-x="1536" d="M55 971h178l248 -715l240 715h106l250 -711l232 711h172l-359 -971h-112l-242 672l-238 -672h-112z" />
<glyph unicode="x" horiz-adv-x="1017" d="M55 0l359 510l-324 461h197l235 -346l209 346h197l-318 -471l353 -500h-195l-270 391l-252 -391h-191z" />
<glyph unicode="y" horiz-adv-x="1024" d="M25 -455l26 121q53 -16 123 -16q96 0 162.5 90t128.5 270l-404 961h177l305 -760l254 760h172l-400 -1094q-131 -358 -395 -358q-84 0 -149 26z" />
<glyph unicode="z" horiz-adv-x="993" d="M86 0v84l580 760h-551v127h774v-84l-588 -760h606v-127h-821z" />
<glyph unicode="{" horiz-adv-x="954" d="M102 590v121q147 27 197.5 86t50.5 207v305q0 182 85 246.5t284 64.5h112v-113h-100q-121 0 -173 -38.5t-52 -161.5v-310q0 -150 -55.5 -228.5t-196.5 -117.5q139 -41 195.5 -120.5t56.5 -227.5v-311q0 -123 52 -162t173 -39h100v-113h-112q-199 0 -284 64.5t-85 247.5 v307q0 147 -50 206.5t-198 86.5z" />
<glyph unicode="|" horiz-adv-x="614" d="M246 -481v2068h123v-2068h-123z" />
<glyph unicode="}" horiz-adv-x="954" d="M123 -209h100q121 0 173.5 39t52.5 162v311q0 150 55 228.5t196 117.5q-139 41 -195 121t-56 227v310q0 123 -52.5 161.5t-173.5 38.5h-100v113h113q199 0 283.5 -64.5t84.5 -246.5v-305q0 -147 50.5 -207t197.5 -86v-121q-147 -27 -197.5 -86.5t-50.5 -206.5v-307 q0 -182 -85 -247t-283 -65h-113v113z" />
<glyph unicode="~" d="M102 502q57 236 234 235q72 0 233.5 -63.5t218.5 -63.5q55 0 86.5 36t49.5 108l100 -27q-57 -236 -233 -235q-72 0 -234 63t-219 63q-55 0 -86 -35.5t-49 -107.5z" />
<glyph unicode="&#xa1;" horiz-adv-x="573" d="M162 874.5q0 51.5 37 88t88 36.5t88 -36.5t37 -88t-37 -88t-88 -36.5t-88 36.5t-37 88zM174 -401l66 974h94l65 -974h-225z" />
<glyph unicode="&#xa2;" d="M143 465q0 213 111 358.5t317 169.5v221h107v-215q174 -8 276 -73l-32 -123q-109 53 -244 59v-751q166 4 272 65l27 -123q-111 -74 -299 -80v-206h-107v208q-186 23 -307 147t-121 343zM303 471q0 -145 69.5 -236.5t198.5 -115.5v735q-127 -27 -197.5 -130t-70.5 -253z " />
<glyph unicode="&#xa3;" d="M135 0v72q147 82 218 191.5t71 221.5q0 55 -27 129h-233v101h196q-53 141 -53 248q0 178 117 283.5t303 105.5q111 0 205 -25l-12 -139q-86 20 -187 20q-125 0 -194.5 -64.5t-69.5 -187.5q0 -90 61 -241h373v-101h-338q20 -68 21 -133q0 -98 -63.5 -186t-160.5 -148h607 v-147h-834z" />
<glyph unicode="&#xa4;" d="M127 262l139 139q-59 90 -59 217t61 222l-141 141l78 78l139 -141q88 66 215 65q133 0 223 -63l140 139l77 -78l-141 -141q60 -85 60 -222q0 -127 -58 -217l139 -139l-77 -78l-138 138q-88 -66 -225 -66q-133 0 -219 63l-135 -135zM354 618.5q0 -106.5 54.5 -175 t152.5 -68.5q100 0 155.5 68.5t55.5 174.5q0 115 -55 180.5t-157.5 65.5t-154 -69.5t-51.5 -176z" />
<glyph unicode="&#xa5;" d="M45 1323h188l330 -590l338 590h178l-385 -627h234v-100h-287v-141h287v-101h-287v-354h-164v354h-291v101h291v141h-291v100h238z" />
<glyph unicode="&#xa6;" horiz-adv-x="614" d="M246 276h123v-757h-123v757zM246 829v758h123v-758h-123z" />
<glyph unicode="&#xa7;" horiz-adv-x="991" d="M123 584q0 113 72.5 188.5t181.5 99.5q-168 100 -168 246q0 143 94 213t236 70q152 0 280 -68l-26 -127q-111 70 -258 70q-178 0 -179 -141q0 -51 53.5 -95.5t128 -81t149.5 -79.5t128 -111t53 -154q0 -113 -73.5 -187.5t-182.5 -96.5q170 -104 170 -246q0 -143 -94 -213 t-235 -70q-152 0 -281 68l27 127q111 -70 258 -70q178 0 178 142q0 49 -53.5 93t-128 82t-149.5 81t-128 110.5t-53 149.5zM272 604q0 -63 49.5 -106t143.5 -92q111 10 182.5 60t71.5 132q0 63 -50.5 106.5t-144.5 90.5q-111 -10 -181.5 -59.5t-70.5 -131.5z" />
<glyph unicode="&#xa8;" horiz-adv-x="819" d="M88 1317q0 43 32 73.5t77 30.5q43 0 75.5 -30.5t32.5 -73.5t-32.5 -74t-75.5 -31q-45 0 -77 31t-32 74zM514 1317q0 43 32 73.5t77 30.5q43 0 75.5 -30.5t32.5 -73.5t-32.5 -74t-75.5 -31q-45 0 -77 31t-32 74z" />
<glyph unicode="&#xa9;" horiz-adv-x="1658" d="M113 688q0 297 209.5 505t506.5 208t507 -208t210 -505q0 -299 -210 -508t-507 -209t-506.5 209t-209.5 508zM205 688q0 -260 183 -443.5t441 -183.5q260 0 442.5 183.5t182.5 443.5q0 258 -182 441.5t-443 183.5q-256 0 -440 -183.5t-184 -441.5zM461 673.5 q0 186.5 108.5 298t290.5 111.5q113 0 209 -51l-20 -114q-88 51 -183 51q-135 0 -207.5 -81t-72.5 -214q0 -135 76.5 -205t216.5 -70q109 0 194 43l12 -106q-90 -51 -223 -51q-180 0 -290.5 101t-110.5 287.5z" />
<glyph unicode="&#xaa;" horiz-adv-x="770" d="M92 852q0 61 33 106.5t97.5 73t124 41.5t145.5 27v53q0 31 -3.5 51.5t-14.5 41t-36.5 30.5t-64.5 10q-111 0 -234 -63l-22 106q121 72 278 72q223 0 223 -203v-379q0 -31 9.5 -39t36.5 -8h45v-78q-49 -18 -127 -18q-88 0 -88 92q-82 -94 -209 -94q-84 0 -138.5 47 t-54.5 131zM225 856q0 -72 84 -72q51 0 105.5 33t77.5 64v127q-133 -23 -200 -53.5t-67 -98.5z" />
<glyph unicode="&#xab;" horiz-adv-x="1097" d="M102 487l363 424l90 -71l-279 -353l279 -352l-90 -72zM502 487l362 424l90 -71l-278 -353l278 -352l-90 -72z" />
<glyph unicode="&#xac;" d="M92 764v106h922v-495h-111v389h-811z" />
<glyph unicode="&#xad;" horiz-adv-x="716" d="M72 451v122h573v-122h-573z" />
<glyph unicode="&#xae;" horiz-adv-x="1658" d="M113 688q0 297 209.5 505t506.5 208t507 -208t210 -505q0 -299 -210 -508t-507 -209t-506.5 209t-209.5 508zM205 688q0 -260 183 -443.5t441 -183.5q260 0 442.5 183.5t182.5 443.5q0 258 -182 441.5t-443 183.5q-256 0 -440 -183.5t-184 -441.5zM596 305v760h252 q113 0 178.5 -54.5t65.5 -158.5q0 -176 -170 -223q41 -20 77 -78l80 -131q23 -39 56 -39h32v-84q-33 -8 -65 -8q-72 0 -123 80l-131 204q-27 43 -76 43h-57v-311h-119zM715 725h114q70 0 107 34t37 87q0 55 -36 86t-101 31h-121v-238z" />
<glyph unicode="&#xaf;" horiz-adv-x="819" d="M133 1221v122h553v-122h-553z" />
<glyph unicode="&#xb0;" d="M233 1024q0 147 95.5 237.5t234.5 90.5t234.5 -90.5t95.5 -237.5t-94 -236.5t-235.5 -89.5t-236 89.5t-94.5 236.5zM354 1024q0 -100 60.5 -163.5t148.5 -63.5t148.5 63.5t60.5 163.5t-60.5 163.5t-148.5 63.5t-148.5 -63.5t-60.5 -163.5z" />
<glyph unicode="&#xb1;" d="M102 0v106h922v-106h-922zM102 631v106h406v361h110v-361h406v-106h-406v-363h-110v363h-406z" />
<glyph unicode="&#xb2;" horiz-adv-x="819" d="M82 670v63q223 162 343 292t120 237q0 129 -156 129q-119 0 -242 -97l-59 103q127 113 307 112q291 0 291 -245q0 -115 -89 -226.5t-257 -251.5h377l-8 -116h-627z" />
<glyph unicode="&#xb3;" horiz-adv-x="819" d="M90 754l82 98q90 -82 211 -82q184 0 184 123q0 80 -70.5 107.5t-197.5 27.5h-61v105q293 18 292 155q0 45 -37.5 75t-103.5 30q-133 0 -231 -90l-56 94q117 113 306 112q113 0 186.5 -54t73.5 -159q0 -70 -44 -120t-122 -70q94 -12 148.5 -63.5t54.5 -141.5 q0 -125 -96.5 -186.5t-231.5 -61.5q-168 0 -287 101z" />
<glyph unicode="&#xb4;" horiz-adv-x="819" d="M227 1180l187 346l178 -41l-295 -342z" />
<glyph unicode="&#xb5;" horiz-adv-x="1101" d="M152 -96v1067h155v-647q0 -211 201 -211q86 0 164 44t123 97v717h155v-971h-155v104q-145 -133 -322 -133q-86 0 -170 54v-99q0 -141 29.5 -201.5t103.5 -101.5l-61 -104q-223 55 -223 385z" />
<glyph unicode="&#xb6;" horiz-adv-x="1337" d="M123 950q0 207 126 314.5t357 107.5h619v-121h-172v-1423h-146v1425h-180v-1425h-145v723q-225 0 -342 107.5t-117 291.5zM260 956q0 -143 83 -216.5t239 -73.5v587q-322 0 -322 -297z" />
<glyph unicode="&#xb7;" horiz-adv-x="512" d="M131 622.5q0 51.5 37 88.5t88 37t88 -37t37 -88.5t-37 -88t-88 -36.5t-88 36.5t-37 88z" />
<glyph unicode="&#xb8;" horiz-adv-x="819" d="M207 -438l24 73q68 -31 138 -30q90 0 90 76q0 82 -129 81h-66l-14 37l162 201h110l-112 -137q80 0 140 -41t60 -119q0 -88 -62.5 -136t-150.5 -48q-98 0 -190 43z" />
<glyph unicode="&#xb9;" horiz-adv-x="819" d="M154 670v98l208 8v604l-208 -22v96l276 47h76v-725l199 -8v-98h-551z" />
<glyph unicode="&#xba;" horiz-adv-x="839" d="M92 1036q0 168 85 266.5t243 98.5t243 -99.5t85 -263.5q0 -176 -88 -270t-240 -94q-150 0 -239 94t-89 268zM219 1036q0 -115 53.5 -187.5t147.5 -72.5q96 0 148.5 73t52.5 187q0 119 -55.5 189.5t-145.5 70.5q-94 0 -147.5 -70.5t-53.5 -189.5z" />
<glyph unicode="&#xbb;" horiz-adv-x="1097" d="M143 135l279 352l-279 353l90 71l363 -424l-363 -424zM543 135l278 352l-278 353l90 71l362 -424l-362 -424z" />
<glyph unicode="&#xbc;" horiz-adv-x="2048" d="M102 504v98l209 8v604l-209 -22v96l277 47h76v-725l198 -8v-98h-551zM524 41l971 1311l98 -70l-970 -1311zM1225 213v70l495 548h88v-507h138v-111h-138v-213h-137v213h-446zM1405 324h266v286z" />
<glyph unicode="&#xbd;" horiz-adv-x="2048" d="M102 504v98l209 8v604l-209 -22v96l277 47h76v-725l198 -8v-98h-551zM469 41l971 1311l98 -70l-971 -1311zM1311 0v63q223 162 343 292t120 237q0 129 -156 129q-119 0 -242 -96l-59 102q127 113 307 113q291 0 291 -246q0 -115 -89 -226.5t-257 -250.5h377l-9 -117h-626 z" />
<glyph unicode="&#xbe;" horiz-adv-x="2048" d="M102 580l82 98q90 -82 211 -82q184 0 185 123q0 80 -71 107.5t-198 27.5h-61v104q293 18 293 156q0 45 -38 75t-104 30q-133 0 -231 -91l-55 95q117 113 305 112q113 0 186.5 -54t73.5 -159q0 -70 -44 -120t-122 -70q94 -12 148.5 -63.5t54.5 -141.5q0 -125 -96.5 -186.5 t-231.5 -61.5q-168 0 -287 101zM535 41l970 1311l99 -70l-971 -1311zM1225 213v70l495 548h88v-507h138v-111h-138v-213h-137v213h-446zM1405 324h266v286z" />
<glyph unicode="&#xbf;" horiz-adv-x="778" d="M61 -141q0 88 37 155.5t89.5 111.5t104.5 85t89 94t37 117q0 68 -8 110h139q18 -55 18 -135q0 -82 -34.5 -146.5t-85 -106.5t-101.5 -79.5t-86 -87t-35 -108.5q0 -68 61.5 -116t135.5 -48q61 0 131 21.5t111 60.5l53 -119q-115 -98 -297 -98q-166 0 -262.5 87t-96.5 202z M346 874.5q0 51.5 37 88t88 36.5t88 -36.5t37 -88t-37 -88t-88 -36.5t-88 36.5t-37 88z" />
<glyph unicode="&#xc0;" horiz-adv-x="1310" d="M61 0l545 1372h105l538 -1372h-184l-147 393h-537l-150 -393h-170zM311 1673l144 113l319 -240l-53 -59zM434 532h432l-213 570z" />
<glyph unicode="&#xc1;" horiz-adv-x="1310" d="M61 0l545 1372h105l538 -1372h-184l-147 393h-537l-150 -393h-170zM434 532h432l-213 570zM535 1546l319 240l143 -113l-409 -186z" />
<glyph unicode="&#xc2;" horiz-adv-x="1310" d="M61 0l545 1372h105l538 -1372h-184l-147 393h-537l-150 -393h-170zM389 1522l223 288h86l224 -288l-70 -35l-197 149l-196 -149zM434 532h432l-213 570z" />
<glyph unicode="&#xc3;" horiz-adv-x="1310" d="M61 0l545 1372h105l538 -1372h-184l-147 393h-537l-150 -393h-170zM354 1524q10 115 53.5 183.5t110.5 68.5q43 0 148.5 -45t132.5 -45q55 -1 78 116l79 -14q-10 -115 -53 -183.5t-110 -68.5q-43 0 -148.5 45t-132.5 45q-55 0 -78 -117zM434 532h432l-213 570z" />
<glyph unicode="&#xc4;" horiz-adv-x="1310" d="M61 0l545 1372h105l538 -1372h-184l-147 393h-537l-150 -393h-170zM334 1653q0 43 31.5 73.5t76.5 30.5q43 0 76 -30.5t33 -73.5t-33 -74t-76 -31q-45 0 -76.5 31t-31.5 74zM434 532h432l-213 570zM760 1653q0 43 31.5 73.5t76.5 30.5q43 0 76 -30.5t33 -73.5t-33 -74 t-76 -31q-45 0 -76.5 31t-31.5 74z" />
<glyph unicode="&#xc5;" horiz-adv-x="1310" d="M61 0l545 1372h105l538 -1372h-184l-147 393h-537l-150 -393h-170zM434 532h432l-213 570zM453 1655q0 88 55 142t147 54q90 0 144.5 -57t54.5 -139q0 -78 -53 -136.5t-146 -58.5q-90 0 -146 55.5t-56 139.5zM557 1657q0 -100 98 -101q37 0 65 27t28 74q0 49 -26 75.5 t-65 26.5q-100 0 -100 -102z" />
<glyph unicode="&#xc6;" horiz-adv-x="1837" d="M51 0l899 1372h779v-137h-609v-444h490v-138h-490v-516h615v-137h-779v393h-462l-254 -393h-189zM584 530h372v586z" />
<glyph unicode="&#xc7;" horiz-adv-x="1294" d="M113 668q0 340 187 536.5t497 196.5q213 0 377 -80l-29 -156q-158 86 -338 86q-248 0 -384 -154.5t-136 -428.5q0 -254 146.5 -399.5t391.5 -145.5q203 0 344 88l23 -150q-141 -78 -361 -88l-90 -110q80 0 140.5 -41t60.5 -119q0 -88 -62.5 -136t-150.5 -48 q-98 0 -190 43l24 73q68 -31 137 -30q90 0 91 76q0 82 -129 81h-66l-14 37l141 176q-285 20 -447.5 205t-162.5 488z" />
<glyph unicode="&#xc8;" horiz-adv-x="1054" d="M174 0v1372h772v-137h-608v-444h489v-138h-489v-516h614v-137h-778zM227 1673l144 113l319 -240l-53 -59z" />
<glyph unicode="&#xc9;" horiz-adv-x="1054" d="M174 0v1372h772v-137h-608v-444h489v-138h-489v-516h614v-137h-778zM340 1546l319 240l144 -113l-410 -186z" />
<glyph unicode="&#xca;" horiz-adv-x="1054" d="M174 0v1372h772v-137h-608v-444h489v-138h-489v-516h614v-137h-778zM293 1522l223 288h86l223 -288l-69 -35l-197 149l-197 -149z" />
<glyph unicode="&#xcb;" horiz-adv-x="1054" d="M174 0v1372h772v-137h-608v-444h489v-138h-489v-516h614v-137h-778zM229 1653q0 43 32 73.5t77 30.5q43 0 75.5 -30.5t32.5 -73.5t-32.5 -74t-75.5 -31q-45 0 -77 31t-32 74zM655 1653q0 43 32 73.5t77 30.5q43 0 75.5 -30.5t32.5 -73.5t-32.5 -74t-75.5 -31 q-45 0 -77 31t-32 74z" />
<glyph unicode="&#xcc;" horiz-adv-x="512" d="M-94 1673l143 113l320 -240l-54 -59zM174 0v1372h164v-1372h-164z" />
<glyph unicode="&#xcd;" horiz-adv-x="512" d="M145 1546l320 240l143 -113l-409 -186zM174 0v1372h164v-1372h-164z" />
<glyph unicode="&#xce;" horiz-adv-x="512" d="M-10 1522l223 288h86l223 -288l-69 -35l-197 149l-197 -149zM174 0v1372h164v-1372h-164z" />
<glyph unicode="&#xcf;" horiz-adv-x="512" d="M-66 1653q0 43 32 73.5t77 30.5q43 0 76 -30.5t33 -73.5t-33 -74t-76 -31q-45 0 -77 31t-32 74zM174 0v1372h164v-1372h-164zM360 1653q0 43 32 73.5t77 30.5q43 0 76 -30.5t33 -73.5t-33 -74t-76 -31q-45 0 -77 31t-32 74z" />
<glyph unicode="&#xd0;" horiz-adv-x="1484" d="M51 664v110h185v598h438q367 0 532.5 -185.5t165.5 -498.5q0 -137 -39 -258t-118.5 -218t-214 -154.5t-310.5 -57.5h-454v664h-185zM399 137h240q281 0 420 153.5t139 397.5q0 258 -133 402.5t-412 144.5h-254v-461h299v-110h-299v-527z" />
<glyph unicode="&#xd1;" horiz-adv-x="1421" d="M174 0v1372h186l723 -991v991h164v-1372h-94l-815 1118v-1118h-164zM424 1524q10 115 53 183.5t111 68.5q43 0 148.5 -45t131.5 -45q55 -1 78 116l80 -14q-10 -115 -53 -183.5t-111 -68.5q-43 0 -148.5 45t-131.5 45q-55 0 -78 -117z" />
<glyph unicode="&#xd2;" horiz-adv-x="1482" d="M113 692q0 190 64.5 347t209.5 259.5t352 102.5q309 0 470 -201t161 -506q0 -313 -161 -518t-470 -205q-209 0 -354 102.5t-208.5 261.5t-63.5 357zM291 692q0 -256 114.5 -416.5t333.5 -160.5t336 159.5t117 419.5q0 254 -115.5 407.5t-337.5 153.5 q-219 0 -333.5 -158.5t-114.5 -404.5zM485 1673l144 113l319 -240l-53 -59z" />
<glyph unicode="&#xd3;" horiz-adv-x="1482" d="M113 692q0 190 64.5 347t209.5 259.5t352 102.5q309 0 470 -201t161 -506q0 -313 -161 -518t-470 -205q-209 0 -354 102.5t-208.5 261.5t-63.5 357zM291 692q0 -256 114.5 -416.5t333.5 -160.5t336 159.5t117 419.5q0 254 -115.5 407.5t-337.5 153.5 q-219 0 -333.5 -158.5t-114.5 -404.5zM528 1546l320 240l143 -113l-409 -186z" />
<glyph unicode="&#xd4;" horiz-adv-x="1482" d="M113 692q0 190 64.5 347t209.5 259.5t352 102.5q309 0 470 -201t161 -506q0 -313 -161 -518t-470 -205q-209 0 -354 102.5t-208.5 261.5t-63.5 357zM291 692q0 -256 114.5 -416.5t333.5 -160.5t336 159.5t117 419.5q0 254 -115.5 407.5t-337.5 153.5 q-219 0 -333.5 -158.5t-114.5 -404.5zM475 1522l223 288h86l224 -288l-70 -35l-197 149l-196 -149z" />
<glyph unicode="&#xd5;" horiz-adv-x="1482" d="M113 692q0 190 64.5 347t209.5 259.5t352 102.5q309 0 470 -201t161 -506q0 -313 -161 -518t-470 -205q-209 0 -354 102.5t-208.5 261.5t-63.5 357zM291 692q0 -256 114.5 -416.5t333.5 -160.5t336 159.5t117 419.5q0 254 -115.5 407.5t-337.5 153.5 q-219 0 -333.5 -158.5t-114.5 -404.5zM440 1524q10 115 53.5 183.5t110.5 68.5q43 0 148.5 -45t132.5 -45q55 -1 78 116l79 -14q-10 -115 -53 -183.5t-110 -68.5q-43 0 -148.5 45t-132.5 45q-55 0 -78 -117z" />
<glyph unicode="&#xd6;" horiz-adv-x="1482" d="M113 692q0 190 64.5 347t209.5 259.5t352 102.5q309 0 470 -201t161 -506q0 -313 -161 -518t-470 -205q-209 0 -354 102.5t-208.5 261.5t-63.5 357zM291 692q0 -256 114.5 -416.5t333.5 -160.5t336 159.5t117 419.5q0 254 -115.5 407.5t-337.5 153.5 q-219 0 -333.5 -158.5t-114.5 -404.5zM420 1653q0 43 31.5 73.5t76.5 30.5q43 0 76 -30.5t33 -73.5t-33 -74t-76 -31q-45 0 -76.5 31t-31.5 74zM846 1653q0 43 31.5 73.5t76.5 30.5q43 0 76 -30.5t33 -73.5t-33 -74t-76 -31q-45 0 -76.5 31t-31.5 74z" />
<glyph unicode="&#xd7;" d="M188 324l297 297l-297 299l78 77l297 -299l297 299l78 -77l-297 -299l297 -297l-78 -78l-297 297l-297 -297z" />
<glyph unicode="&#xd8;" horiz-adv-x="1482" d="M113 -70l170 232q-170 197 -170 530q0 190 64.5 347t209.5 259.5t352 102.5q219 0 373 -111l111 152h147l-170 -232q170 -195 170 -516q0 -313 -161 -518t-470 -205q-219 0 -368 111l-111 -152h-147zM291 692q0 -240 94 -389l633 858q-115 94 -279 94 q-219 0 -333.5 -158.5t-114.5 -404.5zM465 209q110 -94 274 -94q219 0 336 159.5t117 419.5q0 225 -94 377z" />
<glyph unicode="&#xd9;" horiz-adv-x="1374" d="M164 455v917h164v-891q0 -176 93 -270t273 -94q352 0 353 364v891h163v-917q0 -229 -143 -356.5t-379 -127.5q-233 0 -378.5 125t-145.5 359zM360 1673l144 113l319 -240l-53 -59z" />
<glyph unicode="&#xda;" horiz-adv-x="1374" d="M164 455v917h164v-891q0 -176 93 -270t273 -94q352 0 353 364v891h163v-917q0 -229 -143 -356.5t-379 -127.5q-233 0 -378.5 125t-145.5 359zM543 1546l319 240l144 -113l-410 -186z" />
<glyph unicode="&#xdb;" horiz-adv-x="1374" d="M164 455v917h164v-891q0 -176 93 -270t273 -94q352 0 353 364v891h163v-917q0 -229 -143 -356.5t-379 -127.5q-233 0 -378.5 125t-145.5 359zM420 1522l223 288h86l223 -288l-69 -35l-197 149l-197 -149z" />
<glyph unicode="&#xdc;" horiz-adv-x="1374" d="M164 455v917h164v-891q0 -176 93 -270t273 -94q352 0 353 364v891h163v-917q0 -229 -143 -356.5t-379 -127.5q-233 0 -378.5 125t-145.5 359zM365 1653q0 43 31.5 73.5t76.5 30.5q43 0 76 -30.5t33 -73.5t-33 -74t-76 -31q-45 0 -76.5 31t-31.5 74zM791 1653 q0 43 31.5 73.5t76.5 30.5q43 0 76 -30.5t33 -73.5t-33 -74t-76 -31q-45 0 -76.5 31t-31.5 74z" />
<glyph unicode="&#xdd;" horiz-adv-x="1239" d="M61 1372h189l371 -676l378 676h179l-480 -823v-549h-163v549zM473 1546l320 240l143 -113l-410 -186z" />
<glyph unicode="&#xde;" horiz-adv-x="1136" d="M174 0v1372h164v-287h235q209 0 330 -91t121 -277q0 -197 -137 -313.5t-402 -116.5h-147v-287h-164zM338 424h147q174 0 269.5 73.5t95.5 219.5q0 231 -313 231h-199v-524z" />
<glyph unicode="&#xdf;" horiz-adv-x="1255" d="M45 844v127h158v51q0 213 118.5 339t348.5 126q188 0 281 -83t93 -194q0 -80 -31.5 -142t-75.5 -100t-89 -72t-77 -74t-32 -87q0 -53 36 -83.5t132 -78.5q139 -70 203 -132t64 -171q0 -131 -97.5 -215t-265.5 -84q-78 0 -167 22.5t-136 51.5l29 131q131 -78 276 -78 q96 0 150.5 39t54.5 101q0 57 -34 93t-144 91q-139 70 -199.5 130t-60.5 161q0 74 30.5 133t74.5 99t89 76t76 81t31 96q0 59 -45 106.5t-162 47.5q-88 0 -151.5 -28t-94.5 -62.5t-48.5 -90t-19.5 -87t-2 -78.5v-1006h-155v844h-158z" />
<glyph unicode="&#xe0;" horiz-adv-x="985" d="M76 203q0 53 21.5 98t50 77t84 59.5t91 42t108.5 30.5t99.5 21.5t96.5 17.5v135q0 90 -37 134t-146 44q-143 0 -307 -82l-24 119q176 100 383 100q287 0 286 -288v-555q0 -43 19.5 -55.5t60.5 -12.5h47v-86q-70 -18 -157 -18q-115 0 -123 120q-115 -133 -287 -133 q-117 0 -191.5 60.5t-74.5 171.5zM233 207q0 -47 34 -76t85 -29q70 0 145.5 44t129.5 106v184q-190 -35 -292 -87t-102 -142zM276 1485l179 41l186 -346l-70 -37z" />
<glyph unicode="&#xe1;" horiz-adv-x="985" d="M76 203q0 53 21.5 98t50 77t84 59.5t91 42t108.5 30.5t99.5 21.5t96.5 17.5v135q0 90 -37 134t-146 44q-143 0 -307 -82l-24 119q176 100 383 100q287 0 286 -288v-555q0 -43 19.5 -55.5t60.5 -12.5h47v-86q-70 -18 -157 -18q-115 0 -123 120q-115 -133 -287 -133 q-117 0 -191.5 60.5t-74.5 171.5zM233 207q0 -47 34 -76t85 -29q70 0 145.5 44t129.5 106v184q-190 -35 -292 -87t-102 -142zM322 1180l186 346l178 -41l-295 -342z" />
<glyph unicode="&#xe2;" horiz-adv-x="985" d="M76 203q0 53 21.5 98t50 77t84 59.5t91 42t108.5 30.5t99.5 21.5t96.5 17.5v135q0 90 -37 134t-146 44q-143 0 -307 -82l-24 119q176 100 383 100q287 0 286 -288v-555q0 -43 19.5 -55.5t60.5 -12.5h47v-86q-70 -18 -157 -18q-115 0 -123 120q-115 -133 -287 -133 q-117 0 -191.5 60.5t-74.5 171.5zM190 1178l224 342h86l223 -342l-70 -35l-196 192l-197 -192zM233 207q0 -47 34 -76t85 -29q70 0 145.5 44t129.5 106v184q-190 -35 -292 -87t-102 -142z" />
<glyph unicode="&#xe3;" horiz-adv-x="985" d="M76 203q0 53 21.5 98t50 77t84 59.5t91 42t108.5 30.5t99.5 21.5t96.5 17.5v135q0 90 -37 134t-146 44q-143 0 -307 -82l-24 119q176 100 383 100q287 0 286 -288v-555q0 -43 19.5 -55.5t60.5 -12.5h47v-86q-70 -18 -157 -18q-115 0 -123 120q-115 -133 -287 -133 q-117 0 -191.5 60.5t-74.5 171.5zM154 1198q10 115 53 183.5t110 68.5q43 0 148.5 -45t132.5 -45q55 0 78 117l80 -15q-10 -115 -53.5 -183.5t-110.5 -68.5q-43 0 -148.5 45t-132.5 45q-55 0 -78 -116zM233 207q0 -47 34 -76t85 -29q70 0 145.5 44t129.5 106v184 q-190 -35 -292 -87t-102 -142z" />
<glyph unicode="&#xe4;" horiz-adv-x="985" d="M76 203q0 53 21.5 98t50 77t84 59.5t91 42t108.5 30.5t99.5 21.5t96.5 17.5v135q0 90 -37 134t-146 44q-143 0 -307 -82l-24 119q176 100 383 100q287 0 286 -288v-555q0 -43 19.5 -55.5t60.5 -12.5h47v-86q-70 -18 -157 -18q-115 0 -123 120q-115 -133 -287 -133 q-117 0 -191.5 60.5t-74.5 171.5zM145 1317q0 43 32 73.5t77 30.5q43 0 75.5 -30.5t32.5 -73.5t-32.5 -74t-75.5 -31q-45 0 -77 31t-32 74zM233 207q0 -47 34 -76t85 -29q70 0 145.5 44t129.5 106v184q-190 -35 -292 -87t-102 -142zM571 1317q0 43 32 73.5t77 30.5 q43 0 75.5 -30.5t32.5 -73.5t-32.5 -74t-75.5 -31q-45 0 -77 31t-32 74z" />
<glyph unicode="&#xe5;" horiz-adv-x="985" d="M76 203q0 53 21.5 98t50 77t84 59.5t91 42t108.5 30.5t99.5 21.5t96.5 17.5v135q0 90 -37 134t-146 44q-143 0 -307 -82l-24 119q176 100 383 100q287 0 286 -288v-555q0 -43 19.5 -55.5t60.5 -12.5h47v-86q-70 -18 -157 -18q-115 0 -123 120q-115 -133 -287 -133 q-117 0 -191.5 60.5t-74.5 171.5zM233 207q0 -47 34 -76t85 -29q70 0 145.5 44t129.5 106v184q-190 -35 -292 -87t-102 -142zM270 1329q0 88 55.5 142.5t147.5 54.5q90 0 144.5 -57.5t54.5 -139.5q0 -78 -53.5 -136t-145.5 -58q-90 0 -146.5 55t-56.5 139zM375 1331 q0 -100 98 -100q37 0 64.5 26.5t27.5 73.5q0 49 -25.5 76t-64.5 27q-100 0 -100 -103z" />
<glyph unicode="&#xe6;" horiz-adv-x="1552" d="M76 203q0 53 21.5 98t50 77t84 59.5t91 42t108.5 30.5t99.5 21.5t96.5 17.5v135q0 90 -37 134t-146 44q-143 0 -307 -82l-24 119q78 45 184 72.5t190 27.5q211 0 271 -145q129 145 334 145q365 0 364 -366q0 -59 -8 -125h-664v-41q0 -182 95.5 -270t250.5 -88 q152 0 287 84l27 -123q-133 -98 -340 -99q-276 0 -399 203q-158 -203 -367 -203q-115 0 -188.5 62.5t-73.5 169.5zM233 207q0 -47 32 -76t87 -29q84 0 171 56.5t132 128.5q-23 68 -24 149q-190 -33 -294 -85t-104 -144zM805 627h485q4 25 4 43q0 205 -202 204 q-111 0 -184.5 -64t-102.5 -183z" />
<glyph unicode="&#xe7;" horiz-adv-x="968" d="M96 465q0 238 123 386t367 148q160 0 274 -73l-33 -123q-119 59 -239 59q-164 0 -248 -106.5t-84 -284.5q0 -174 87 -267t257 -93q141 0 256 65l27 -123q-111 -74 -277 -82l-88 -108q80 0 140.5 -41t60.5 -119q0 -88 -62.5 -136t-150.5 -48q-98 0 -191 43l25 73 q66 -31 137 -30q90 0 90 76q0 82 -129 81h-65l-15 37l142 176q-180 20 -292 144.5t-112 345.5z" />
<glyph unicode="&#xe8;" horiz-adv-x="1021" d="M96 467q0 246 132 389t333 143q365 0 365 -366q0 -59 -8 -125h-664v-41q0 -182 95 -270t251 -88q152 0 287 84l26 -123q-133 -98 -340 -99q-211 0 -344 129t-133 367zM274 627h486q4 25 4 43q0 205 -203 204q-111 0 -184.5 -64t-102.5 -183zM276 1485l179 41l186 -346 l-70 -37z" />
<glyph unicode="&#xe9;" horiz-adv-x="1021" d="M96 467q0 246 132 389t333 143q365 0 365 -366q0 -59 -8 -125h-664v-41q0 -182 95 -270t251 -88q152 0 287 84l26 -123q-133 -98 -340 -99q-211 0 -344 129t-133 367zM274 627h486q4 25 4 43q0 205 -203 204q-111 0 -184.5 -64t-102.5 -183zM428 1180l186 346l179 -41 l-295 -342z" />
<glyph unicode="&#xea;" horiz-adv-x="1021" d="M96 467q0 246 132 389t333 143q365 0 365 -366q0 -59 -8 -125h-664v-41q0 -182 95 -270t251 -88q152 0 287 84l26 -123q-133 -98 -340 -99q-211 0 -344 129t-133 367zM274 627h486q4 25 4 43q0 205 -203 204q-111 0 -184.5 -64t-102.5 -183zM285 1178l223 342h86 l223 -342l-69 -35l-197 192l-197 -192z" />
<glyph unicode="&#xeb;" horiz-adv-x="1021" d="M96 467q0 246 132 389t333 143q365 0 365 -366q0 -59 -8 -125h-664v-41q0 -182 95 -270t251 -88q152 0 287 84l26 -123q-133 -98 -340 -99q-211 0 -344 129t-133 367zM248 1317q0 43 31.5 73.5t76.5 30.5q43 0 76 -30.5t33 -73.5t-33 -74t-76 -31q-45 0 -76.5 31 t-31.5 74zM274 627h486q4 25 4 43q0 205 -203 204q-111 0 -184.5 -64t-102.5 -183zM674 1317q0 43 31.5 73.5t76.5 30.5q43 0 76 -30.5t33 -73.5t-33 -74t-76 -31q-45 0 -76.5 31t-31.5 74z" />
<glyph unicode="&#xec;" horiz-adv-x="458" d="M-41 1485l178 41l187 -346l-70 -37zM152 0v969l155 30v-999h-155z" />
<glyph unicode="&#xed;" horiz-adv-x="458" d="M152 0v969l155 30v-999h-155zM166 1180l186 346l178 -41l-294 -342z" />
<glyph unicode="&#xee;" horiz-adv-x="458" d="M-37 1178l223 342h86l224 -342l-70 -35l-197 192l-196 -192zM152 0v969l155 30v-999h-155z" />
<glyph unicode="&#xef;" horiz-adv-x="458" d="M-92 1317q0 43 31.5 73.5t76.5 30.5q43 0 76 -30.5t33 -73.5t-33 -74t-76 -31q-45 0 -76.5 31t-31.5 74zM152 0v969l155 30v-999h-155zM334 1317q0 43 31.5 73.5t76.5 30.5q43 0 76 -30.5t33 -73.5t-33 -74t-76 -31q-45 0 -76.5 31t-31.5 74z" />
<glyph unicode="&#xf0;" horiz-adv-x="1091" d="M96 461q0 219 128 361.5t323 142.5q127 0 215 -39q-63 143 -180 254l-297 -127v116l202 86q-104 72 -221 113l47 135q180 -51 332 -180l180 78v-117l-96 -41q260 -279 260 -676q0 -262 -118.5 -429t-335.5 -167q-195 0 -317 135.5t-122 354.5zM258 465q0 -160 75 -262.5 t202 -102.5q152 0 223 136.5t71 341.5q0 96 -20 198q-98 55 -223 55q-160 0 -244 -101t-84 -265z" />
<glyph unicode="&#xf1;" horiz-adv-x="1110" d="M152 0v969l155 30v-137q152 137 336 137q156 0 239 -90t83 -245v-664h-156v641q0 98 -53.5 156.5t-153.5 58.5q-156 0 -295 -139v-717h-155zM252 1198q10 115 53 183.5t111 68.5q43 0 148.5 -45t131.5 -45q55 0 78 117l80 -15q-10 -115 -53 -183.5t-111 -68.5 q-43 0 -148.5 45t-131.5 45q-55 0 -78 -116z" />
<glyph unicode="&#xf2;" horiz-adv-x="1118" d="M96 485q0 227 121 370.5t342 143.5t342 -143t121 -371q0 -236 -126 -375t-337 -139q-209 0 -336 140.5t-127 373.5zM260 485q0 -174 78 -280.5t221 -106.5q145 0 222 106.5t77 280.5q0 178 -81 282.5t-218 104.5q-141 0 -220 -103t-79 -284zM332 1485l178 41l186 -346 l-69 -37z" />
<glyph unicode="&#xf3;" horiz-adv-x="1118" d="M96 485q0 227 121 370.5t342 143.5t342 -143t121 -371q0 -236 -126 -375t-337 -139q-209 0 -336 140.5t-127 373.5zM260 485q0 -174 78 -280.5t221 -106.5q145 0 222 106.5t77 280.5q0 178 -81 282.5t-218 104.5q-141 0 -220 -103t-79 -284zM387 1180l186 346l179 -41 l-295 -342z" />
<glyph unicode="&#xf4;" horiz-adv-x="1118" d="M96 485q0 227 121 370.5t342 143.5t342 -143t121 -371q0 -236 -126 -375t-337 -139q-209 0 -336 140.5t-127 373.5zM260 485q0 -174 78 -280.5t221 -106.5q145 0 222 106.5t77 280.5q0 178 -81 282.5t-218 104.5q-141 0 -220 -103t-79 -284zM293 1178l223 342h86 l223 -342l-69 -35l-197 192l-197 -192z" />
<glyph unicode="&#xf5;" horiz-adv-x="1118" d="M96 485q0 227 121 370.5t342 143.5t342 -143t121 -371q0 -236 -126 -375t-337 -139q-209 0 -336 140.5t-127 373.5zM258 1198q10 115 53 183.5t111 68.5q43 0 148.5 -45t131.5 -45q55 0 78 117l80 -15q-10 -115 -53 -183.5t-111 -68.5q-43 0 -148.5 45t-131.5 45 q-55 0 -78 -116zM260 485q0 -174 78 -280.5t221 -106.5q145 0 222 106.5t77 280.5q0 178 -81 282.5t-218 104.5q-141 0 -220 -103t-79 -284z" />
<glyph unicode="&#xf6;" horiz-adv-x="1118" d="M96 485q0 227 121 370.5t342 143.5t342 -143t121 -371q0 -236 -126 -375t-337 -139q-209 0 -336 140.5t-127 373.5zM238 1317q0 43 31.5 73.5t76.5 30.5q43 0 76 -30.5t33 -73.5t-33 -74t-76 -31q-45 0 -76.5 31t-31.5 74zM260 485q0 -174 78 -280.5t221 -106.5 q145 0 222 106.5t77 280.5q0 178 -81 282.5t-218 104.5q-141 0 -220 -103t-79 -284zM664 1317q0 43 31.5 73.5t76.5 30.5q43 0 76 -30.5t33 -73.5t-33 -74t-76 -31q-45 0 -76.5 31t-31.5 74z" />
<glyph unicode="&#xf7;" d="M102 569v107h922v-107h-922zM451 295q0 45 32.5 79t79.5 34t80 -34t33 -79t-33 -79t-80 -34t-79.5 34t-32.5 79zM451 950q0 45 32.5 79t79.5 34t80 -34t33 -79t-33 -78.5t-80 -33.5t-79.5 33.5t-32.5 78.5z" />
<glyph unicode="&#xf8;" horiz-adv-x="1118" d="M96 485q0 227 121 370.5t342 143.5q145 0 254 -67l64 90h139l-117 -164q123 -137 123 -372.5t-126 -375t-337 -139.5q-143 0 -252 68l-63 -90h-140l117 162q-125 141 -125 374zM260 485q0 -145 53 -245l416 577q-76 55 -170 55q-141 0 -220 -103.5t-79 -283.5zM389 152 q70 -54 170 -54q145 0 222 106.5t77 280.5q0 141 -55 242z" />
<glyph unicode="&#xf9;" horiz-adv-x="1081" d="M131 326v645h156v-652q0 -211 186 -210q170 0 301 145v717h156v-971h-156v104q-152 -133 -336 -133q-147 0 -227 90.5t-80 264.5zM242 1485l178 41l186 -346l-69 -37z" />
<glyph unicode="&#xfa;" horiz-adv-x="1081" d="M131 326v645h156v-652q0 -211 186 -210q170 0 301 145v717h156v-971h-156v104q-152 -133 -336 -133q-147 0 -227 90.5t-80 264.5zM418 1180l186 346l178 -41l-295 -342z" />
<glyph unicode="&#xfb;" horiz-adv-x="1081" d="M131 326v645h156v-652q0 -211 186 -210q170 0 301 145v717h156v-971h-156v104q-152 -133 -336 -133q-147 0 -227 90.5t-80 264.5zM260 1178l223 342h86l224 -342l-70 -35l-197 192l-196 -192z" />
<glyph unicode="&#xfc;" horiz-adv-x="1081" d="M131 326v645h156v-652q0 -211 186 -210q170 0 301 145v717h156v-971h-156v104q-152 -133 -336 -133q-147 0 -227 90.5t-80 264.5zM207 1317q0 43 31.5 73.5t76.5 30.5q43 0 76 -30.5t33 -73.5t-33 -74t-76 -31q-45 0 -76.5 31t-31.5 74zM633 1317q0 43 31.5 73.5 t76.5 30.5q43 0 76 -30.5t33 -73.5t-33 -74t-76 -31q-45 0 -76.5 31t-31.5 74z" />
<glyph unicode="&#xfd;" horiz-adv-x="1024" d="M25 -455l26 121q53 -16 123 -16q96 0 162.5 90t128.5 270l-404 961h177l305 -760l254 760h172l-400 -1094q-131 -358 -395 -358q-84 0 -149 26zM401 1180l187 346l178 -41l-295 -342z" />
<glyph unicode="&#xfe;" horiz-adv-x="1112" d="M152 -453v1903l155 37v-623q147 135 309 135q184 0 292 -136t108 -357q0 -256 -128 -395.5t-339 -139.5q-119 1 -242 52v-476h-155zM307 172q98 -66 242 -66q141 0 224 97.5t83 300.5q0 166 -66.5 260t-195.5 94q-166 0 -287 -141v-545z" />
<glyph unicode="&#xff;" horiz-adv-x="1024" d="M25 -455l26 121q53 -16 123 -16q96 0 162.5 90t128.5 270l-404 961h177l305 -760l254 760h172l-400 -1094q-131 -358 -395 -358q-84 0 -149 26zM213 1317q0 43 31.5 73.5t77.5 30.5q43 0 75.5 -30.5t32.5 -73.5t-32.5 -74t-75.5 -31q-45 0 -77 31t-32 74zM639 1317 q0 43 31.5 73.5t77.5 30.5q43 0 75.5 -30.5t32.5 -73.5t-32.5 -74t-75.5 -31q-45 0 -77 31t-32 74z" />
<glyph unicode="&#x152;" horiz-adv-x="1785" d="M113 684q0 297 156.5 492.5t469.5 195.5h938v-137h-608v-444h490v-138h-490v-516h614v-137h-935q-319 0 -477 184.5t-158 499.5zM291 684q0 -258 124 -403.5t353 -145.5h137v1102h-155q-223 0 -341 -154.5t-118 -398.5z" />
<glyph unicode="&#x153;" horiz-adv-x="1787" d="M96 485q0 227 121 370.5t342 143.5q272 0 389 -219q121 219 379 219q365 0 365 -366q0 -59 -9 -125h-663v-37q0 -158 81 -260t257 -102q160 0 295 84l26 -123q-129 -98 -352 -99q-121 0 -225.5 52.5t-161.5 154.5q-119 -207 -381 -207q-209 0 -336 140.5t-127 373.5z M260 485q0 -174 78 -280.5t221 -106.5q145 0 222 106.5t77 280.5q0 178 -81 282.5t-218 104.5q-141 0 -220 -103t-79 -284zM1040 627h486q4 25 4 43q0 205 -203 204q-109 0 -183.5 -63t-103.5 -184z" />
<glyph unicode="&#x178;" horiz-adv-x="1239" d="M61 1372h189l371 -676l378 676h179l-480 -823v-549h-163v549zM301 1653q0 43 32 73.5t77 30.5q43 0 75.5 -30.5t32.5 -73.5t-32.5 -74t-75.5 -31q-45 0 -77 31t-32 74zM727 1653q0 43 32 73.5t77 30.5q43 0 75.5 -30.5t32.5 -73.5t-32.5 -74t-75.5 -31q-45 0 -77 31 t-32 74z" />
<glyph unicode="&#x2c6;" horiz-adv-x="819" d="M143 1178l224 342h86l223 -342l-70 -35l-196 192l-197 -192z" />
<glyph unicode="&#x2dc;" horiz-adv-x="819" d="M109 1198q10 115 53 183.5t110 68.5q43 0 148.5 -45t132.5 -45q55 0 78 117l80 -15q-10 -115 -53.5 -183.5t-110.5 -68.5q-43 0 -148.5 45t-132.5 45q-55 0 -78 -116z" />
<glyph unicode="&#x2000;" horiz-adv-x="925" />
<glyph unicode="&#x2001;" horiz-adv-x="1851" />
<glyph unicode="&#x2002;" horiz-adv-x="925" />
<glyph unicode="&#x2003;" horiz-adv-x="1851" />
<glyph unicode="&#x2004;" horiz-adv-x="617" />
<glyph unicode="&#x2005;" horiz-adv-x="462" />
<glyph unicode="&#x2006;" horiz-adv-x="308" />
<glyph unicode="&#x2007;" horiz-adv-x="308" />
<glyph unicode="&#x2008;" horiz-adv-x="231" />
<glyph unicode="&#x2009;" horiz-adv-x="370" />
<glyph unicode="&#x200a;" horiz-adv-x="102" />
<glyph unicode="&#x2010;" horiz-adv-x="716" d="M72 451v122h573v-122h-573z" />
<glyph unicode="&#x2011;" horiz-adv-x="716" d="M72 451v122h573v-122h-573z" />
<glyph unicode="&#x2012;" horiz-adv-x="716" d="M72 451v122h573v-122h-573z" />
<glyph unicode="&#x2013;" horiz-adv-x="1228" d="M72 451v122h1085v-122h-1085z" />
<glyph unicode="&#x2014;" horiz-adv-x="1843" d="M72 451v122h1700v-122h-1700z" />
<glyph unicode="&#x2018;" horiz-adv-x="491" d="M123 1053q0 170 186 348l70 -49q-106 -139 -107 -265q0 -72 31 -149h-160q-20 53 -20 115z" />
<glyph unicode="&#x2019;" horiz-adv-x="489" d="M113 961q104 141 104 264q0 70 -31 147h160q20 -49 21 -112q-1 -167 -185 -351z" />
<glyph unicode="&#x201a;" horiz-adv-x="489" d="M92 -203q104 141 105 264q0 70 -31 148h160q20 -49 20 -113q0 -166 -184 -350z" />
<glyph unicode="&#x201c;" horiz-adv-x="806" d="M123 1053q0 170 186 348l70 -49q-106 -139 -107 -265q0 -72 31 -149h-160q-20 53 -20 115zM440 1051q1 166 185 350l69 -51q-104 -141 -104 -265q0 -70 31 -147h-160q-20 49 -21 113z" />
<glyph unicode="&#x201d;" horiz-adv-x="806" d="M113 961q104 141 104 264q0 70 -31 147h160q20 -49 21 -112q-1 -167 -185 -351zM428 958q106 139 107 265q0 72 -31 149h160q20 -53 20 -115q0 -170 -186 -348z" />
<glyph unicode="&#x201e;" horiz-adv-x="806" d="M92 -203q104 141 105 264q0 70 -31 148h160q20 -49 20 -113q0 -166 -184 -350zM408 -205q106 139 106 264q0 72 -31 150h160q20 -53 21 -115q-1 -170 -187 -348z" />
<glyph unicode="&#x2022;" horiz-adv-x="819" d="M137 621q0 115 78 193.5t193 78.5q117 0 194.5 -79t77.5 -193q0 -113 -77.5 -192t-194.5 -79q-115 0 -193 79t-78 192z" />
<glyph unicode="&#x2026;" horiz-adv-x="1536" d="M131 96q0 51 37 88t88 37t88 -37t37 -88t-37 -88t-88 -37t-88 37t-37 88zM643 96q0 51 37 88t88 37t88 -37t37 -88t-37 -88t-88 -37t-88 37t-37 88zM1155 96q0 51 37 88t88 37t88 -37t37 -88t-37 -88t-88 -37t-88 37t-37 88z" />
<glyph unicode="&#x202f;" horiz-adv-x="370" />
<glyph unicode="&#x2039;" horiz-adv-x="698" d="M102 487l363 424l90 -71l-279 -353l279 -352l-90 -72z" />
<glyph unicode="&#x203a;" horiz-adv-x="698" d="M143 135l279 352l-279 353l90 71l363 -424l-363 -424z" />
<glyph unicode="&#x205f;" horiz-adv-x="462" />
<glyph unicode="&#x20ac;" d="M96 492v100h148q-2 25 -2 76q0 43 2 65h-148v101h158q33 227 154.5 372.5t328.5 145.5q164 0 285 -76l-43 -141q-102 74 -235.5 73.5t-217.5 -102.5t-110 -272h422v-101h-432q-2 -23 -3 -65q0 -51 3 -76h432v-100h-422q27 -178 110.5 -277.5t214.5 -99.5q133 0 250 75 l35 -137q-127 -82 -301 -82q-203 0 -320.5 144.5t-150.5 376.5h-158z" />
<glyph unicode="&#x2122;" horiz-adv-x="1851" d="M82 1272v100h653v-100h-272v-660h-113v660h-268zM909 612v760h131l275 -584l266 584h127v-760h-115v545l-254 -545h-59l-258 545v-545h-113z" />
<glyph unicode="&#xe000;" horiz-adv-x="970" d="M0 970h970v-970h-970v970z" />
<glyph unicode="&#xfb01;" horiz-adv-x="1132" d="M45 844v127h158v88q0 209 111.5 318.5t271.5 109.5q47 0 84 -10l-17 -123h-24q-135 0 -203 -67.5t-68 -225.5v-90h260v-127h-260v-844h-155v844h-158zM788 1317q0 45 34 77.5t81 32.5t81 -32.5t34 -77.5t-34 -78t-81 -33t-81 33t-34 78zM825 0v969l156 30v-999h-156z" />
<glyph unicode="&#xfb02;" horiz-adv-x="1132" d="M45 844v127h158v88q0 209 111.5 318.5t271.5 109.5q47 0 84 -10l-17 -123h-24q-135 0 -203 -67.5t-68 -225.5v-90h260v-127h-260v-844h-155v844h-158zM825 0v1450l156 37v-1487h-156z" />
<glyph unicode="&#xfb03;" horiz-adv-x="1804" d="M1461 1317q0 45 33.5 77.5t80.5 32.5t81 -32.5t34 -77.5t-34 -78t-81 -33t-80.5 33t-33.5 78zM1498 0v969l155 30v-999h-155zM718 844v127h158v88q0 209 111.5 318.5t271.5 109.5q47 0 84 -10l-17 -123h-24q-135 0 -203 -67.5t-68 -225.5v-90h260v-127h-260v-844h-155 v844h-158zM45 844v127h158v88q0 209 111.5 318.5t271.5 109.5q47 0 84 -10l-17 -123h-24q-135 0 -203 -67.5t-68 -225.5v-90h260v-127h-260v-844h-155v844h-158z" />
<glyph unicode="&#xfb04;" horiz-adv-x="1804" d="M1498 0v1450l155 37v-1487h-155zM718 844v127h158v88q0 209 111.5 318.5t271.5 109.5q47 0 84 -10l-17 -123h-24q-135 0 -203 -67.5t-68 -225.5v-90h260v-127h-260v-844h-155v844h-158zM45 844v127h158v88q0 209 111.5 318.5t271.5 109.5q47 0 84 -10l-17 -123h-24 q-135 0 -203 -67.5t-68 -225.5v-90h260v-127h-260v-844h-155v844h-158z" />
</font>
</defs>
</svg>
