<?xml version="1.0" standalone="no"?>
<!DOCTYPE svg PUBLIC "-//W3C//DTD SVG 1.1//EN" "http://www.w3.org/Graphics/SVG/1.1/DTD/svg11.dtd" >
<svg xmlns="http://www.w3.org/2000/svg">
<metadata>
This is a custom SVG webfont generated by Font Squirrel.
Copyright   : Copyright c 2003 by Bitstream Inc All Rights Reserved
Foundry     : Bitstream Inc
Foundry URL : httpwwwbitstreamcom
</metadata>
<defs>
<font id="webfontKXNkVEHd" horiz-adv-x="1024" >
<font-face units-per-em="2048" ascent="1556" descent="-492" />
<missing-glyph horiz-adv-x="712" />
<glyph unicode=" "  horiz-adv-x="712" />
<glyph unicode="&#x09;" horiz-adv-x="712" />
<glyph unicode="&#xa0;" horiz-adv-x="712" />
<glyph unicode="!" horiz-adv-x="897" d="M260 162q0 80 55.5 135t133.5 55q80 0 135 -55t55 -135t-55.5 -135.5t-134.5 -55.5q-78 0 -133.5 55.5t-55.5 135.5zM262 1493h375l-119 -842v-190h-139v190z" />
<glyph unicode="&#x22;" horiz-adv-x="1064" d="M195 938v555h237v-555h-237zM635 938v555h237v-555h-237z" />
<glyph unicode="#" horiz-adv-x="1714" d="M139 383v215h328l70 274h-283v213h338l96 385h223l-96 -385h264l97 385h221l-97 -385h277v-213h-330l-69 -274h284v-215h-336l-96 -383h-221l96 383h-264l-96 -383h-223l96 383h-279zM690 598h264l70 274h-264z" />
<glyph unicode="$" horiz-adv-x="1423" d="M182 897q0 178 123 282.5t342 110.5v269h121v-269q109 -6 215 -28q111 -23 199 -60v-272h-121q-14 115 -92 180q-76 63 -201 68v-373q270 -57 379 -158q109 -98 108 -280q0 -184 -127 -287t-360 -109v-270h-121v270q-109 2 -223 25q-117 23 -229 63v291h120 q18 -139 95 -200q82 -66 223 -66h14v405q-250 55 -356 150q-109 96 -109 258zM463 1022q0 -70 43 -113q45 -45 141 -71v340q-88 -12 -135 -54q-49 -43 -49 -102zM768 84q101 12 154 55q51 43 51 117t-49 123q-47 47 -156 78v-373z" />
<glyph unicode="%" horiz-adv-x="1945" d="M49 1114q0 199 101 301q100 104 292.5 104.5t292.5 -104.5q100 -102 101 -301q0 -201 -101 -303q-100 -104 -292.5 -104t-292.5 104q-101 102 -101 303zM322 1114q0 -164 28 -237q27 -70 92.5 -70t92.5 70q29 74 28 237q0 162 -28 236q-27 70 -92.5 69.5t-92.5 -69.5 q-28 -74 -28 -236zM420 -29l934 1549h172l-934 -1549h-172zM1110 379q0 195 102 301q102 104 291 104t291 -104q102 -106 102 -301q0 -197 -102 -303q-102 -104 -290.5 -104.5t-291.5 104.5q-102 106 -102 303zM1382 379q0 -164 29 -238q27 -70 92.5 -69.5t91.5 69.5 q29 74 29 238q0 162 -29 235q-27 70 -92 70q-68 0 -94 -70q-27 -67 -27 -235z" />
<glyph unicode="&#x26;" horiz-adv-x="1847" d="M82 451q0 162 86 278q84 115 272 199q-55 70 -78 129q-25 61 -24 117q0 164 137 256q135 90 387 90q74 0 172 -13q84 -10 223 -34v-312h-129q-18 123 -75.5 180.5t-165.5 57.5q-104 0 -160 -47q-57 -49 -57 -131q0 -90 180 -275l29 -28l460 -482q59 66 95 158 q35 90 43 201h-183v120h500v-120h-176q-18 -154 -62 -258q-45 -113 -120 -201l206 -215h170v-121h-479l-127 131q-104 -82 -221 -121t-264 -39q-303 0 -469 127q-170 130 -170 353zM436 516q0 -172 107 -278q109 -109 270 -109q78 0 152 25q76 25 147 75l-565 588 q-53 -66 -82 -143q-29 -80 -29 -158z" />
<glyph unicode="'" horiz-adv-x="626" d="M195 938v555h237v-555h-237z" />
<glyph unicode="(" horiz-adv-x="968" d="M193 618q0 344 163 576q162 229 506 362v-120q-156 -94 -227 -285q-70 -184 -70 -532.5t70 -532.5q72 -190 227 -285v-120q-338 127 -504 358q-165 233 -165 579z" />
<glyph unicode=")" horiz-adv-x="968" d="M104 -199q156 94 228 285q70 184 69.5 532.5t-69.5 532.5q-72 190 -228 285v120q340 -131 506 -362q164 -227 164 -576q0 -346 -166 -579q-166 -231 -504 -358v120z" />
<glyph unicode="*" horiz-adv-x="1069" d="M45 874l361 170l-361 168l98 158l328 -242l-27 392h183l-27 -392l328 242l98 -158l-360 -168l360 -170l-98 -155l-328 239l27 -389h-183l27 389l-328 -239z" />
<glyph unicode="+" horiz-adv-x="1714" d="M217 528v230h526v526h230v-526h526v-230h-526v-526h-230v526h-526z" />
<glyph unicode="," horiz-adv-x="712" d="M27 -197q104 82 153 189q49 104 49 241v86h285v-8q0 -221 -92 -380.5t-285 -268.5z" />
<glyph unicode="-" horiz-adv-x="849" d="M111 414v270h628v-270h-628z" />
<glyph unicode="." horiz-adv-x="712" d="M166 162q0 80 55 135t135 55t135.5 -55t55.5 -135t-55.5 -135.5t-135.5 -55.5t-135 55.5t-55 135.5z" />
<glyph unicode="/" horiz-adv-x="747" d="M0 -190l526 1683h222l-527 -1683h-221z" />
<glyph unicode="0" horiz-adv-x="1423" d="M96 745q0 377 160 576t457 199t456.5 -199t159.5 -575.5t-159.5 -575.5t-456.5 -199t-457 198.5t-160 575.5zM504 745.5q0 -436.5 45 -548.5q43 -109 164 -109t164 109q45 113 45 548q0 430 -45 547q-43 111 -164 111t-164 -109q-45 -112 -45 -548.5z" />
<glyph unicode="1" horiz-adv-x="1423" d="M250 1145v149l375 226h315v-1399h281v-121h-940v121h280v1208z" />
<glyph unicode="2" horiz-adv-x="1423" d="M137 0v244l221 153q281 193 377 332q94 137 94 320q0 174 -71.5 264t-208.5 90q-117 0 -188.5 -71.5t-90.5 -207.5h-120v322q125 37 241 55q121 18 242 19q285 0 444.5 -117t159.5 -324q0 -152 -88 -266q-94 -123 -336 -278l-416 -273h707v176h137v-438h-1104z" />
<glyph unicode="3" horiz-adv-x="1423" d="M143 51v328h121q12 -145 88 -217q78 -74 217 -74q154 0 236 84t82 240q0 162 -86 250t-246 88h-66v120h52q147 0 221 68t74 203q0 127 -70 194.5t-199 67.5q-121 0 -186 -64q-68 -66 -84 -188h-121v299q141 37 256 53q109 16 242 17q268 0 413.5 -96.5t145.5 -276.5 q0 -137 -82 -219q-86 -86 -244 -113q195 -31 291 -133t96 -279q0 -211 -165.5 -321.5t-479.5 -110.5q-123 0 -243 21q-140 24 -263 59z" />
<glyph unicode="4" horiz-adv-x="1423" d="M84 393v115l625 1012h376v-998h256v-129h-256v-272h222v-121h-822v121h222v272h-623zM262 522h445v725z" />
<glyph unicode="5" horiz-adv-x="1423" d="M168 53v326h121q6 -150 76 -219q72 -72 208 -72q147 0 218 98q72 100 71.5 301t-69.5 297q-72 98 -211 99q-77 0 -136 -31q-53 -29 -110 -98h-100v739h919v-262h-799v-328q66 53 148 78q80 25 170 25q274 0 436 -140q160 -137 160 -379q0 -246 -160 -381t-448 -135 q-127 0 -242 21q-141 24 -252 61z" />
<glyph unicode="6" horiz-adv-x="1423" d="M129 698q0 408 174 615t520 207q94 0 193 -15q113 -16 221 -45v-264h-121q-25 102 -94 154q-72 53 -180 53q-178 0 -258 -123t-80 -395q66 53 145 78q86 27 176 26q229 0 359 -135q131 -137 131 -367q0 -246 -147.5 -381t-417.5 -135q-307 0 -463 185q-158 186 -158 542z M537 479q0 -217 43 -303q43 -88 147 -88t147 88q43 86 43.5 303t-43.5 303q-43 88 -147 88t-147 -88q-43 -86 -43 -303z" />
<glyph unicode="7" horiz-adv-x="1423" d="M162 1008v485h1093v-254l-616 -1239h-203l600 1210h-737v-202h-137z" />
<glyph unicode="8" horiz-adv-x="1423" d="M106 397q0 164 93 267q94 104 270 131q-162 39 -236 120q-78 88 -77 215q0 186 143 289q139 100 412 101q274 0 413 -101q141 -100 142 -289q0 -131 -78 -215t-236 -120q176 -27 271 -131q92 -102 92 -267q0 -205 -156 -315q-157 -111 -448 -111q-292 0 -449 111 q-156 110 -156 315zM504 414q0 -184 47 -256q45 -70 159.5 -70t159.5 70q47 72 48 256q0 186 -46 252q-47 70 -161 69q-113 0 -160 -69.5t-47 -251.5zM543 1126q0 -157 37 -215q37 -59 131 -59t131 59q37 58 37 215q0 160 -37 217q-37 59 -131.5 59.5t-130.5 -59.5 q-37 -57 -37 -217z" />
<glyph unicode="9" horiz-adv-x="1423" d="M111 1004q0 250 145 383t418 133q309 0 465 -185q158 -186 157 -542q0 -403 -176 -615q-174 -207 -518 -207q-94 0 -192 15q-113 16 -222 45v264h121q25 -102 94 -154q72 -53 181 -53q176 0 256 123q82 127 82 397q-61 -51 -148 -80q-78 -27 -174 -26q-229 0 -358 133 q-131 136 -131 369zM508 1012q0 -217 43 -303q43 -88 147.5 -88t147.5 88q43 86 43 303t-43 303q-43 88 -147.5 88t-147.5 -88q-43 -86 -43 -303z" />
<glyph unicode=":" horiz-adv-x="755" d="M188 162q0 80 55.5 135t133.5 55q80 0 135 -55t55 -135t-55 -135.5t-135 -55.5q-78 0 -133.5 55.5t-55.5 135.5zM188 813q0 80 55.5 135.5t133.5 55.5q80 0 135 -55.5t55 -135.5q0 -78 -55 -133t-135 -55q-78 0 -133.5 55t-55.5 133z" />
<glyph unicode=";" horiz-adv-x="755" d="M53 -188q104 84 154 186q49 104 49 242v88h285q0 -224 -92 -387q-92 -162 -285 -271zM188 813q0 80 55.5 135.5t133.5 55.5q80 0 135 -55.5t55 -135.5q0 -78 -55 -133t-135 -55q-78 0 -133.5 55t-55.5 133z" />
<glyph unicode="&#x3c;" horiz-adv-x="1714" d="M217 530v226l1282 463v-240l-979 -338l979 -336v-239z" />
<glyph unicode="=" horiz-adv-x="1714" d="M217 301v227h1282v-227h-1282zM217 756v227h1282v-227h-1282z" />
<glyph unicode="&#x3e;" horiz-adv-x="1714" d="M217 66v239l979 336l-979 338v240l1282 -463v-226z" />
<glyph unicode="?" horiz-adv-x="1198" d="M133 1145v307q111 31 236 51q98 16 217 17q252 0 387 -111t135 -315q0 -199 -131 -318q-129 -117 -375 -135v-205h-139v299q139 43 205 135q66 94 65 246q0 143 -61.5 217t-179.5 74q-111 0 -170 -66q-57 -63 -68 -196h-121zM342 162q0 80 55.5 135t135 55t135 -55 t55.5 -135t-55.5 -135.5t-135 -55.5t-135 55.5t-55.5 135.5z" />
<glyph unicode="@" horiz-adv-x="2048" d="M135 543q0 188 66 356q63 162 192 291q131 129 291 188q163 61 369 62q176 0 323 -49q154 -51 262 -146q133 -113 199 -254q66 -143 66 -315q0 -276 -158 -430q-156 -154 -442 -154h-31v148q-45 -74 -115 -111q-72 -37 -162 -37q-193 0 -301 121t-108 330q0 211 108 331 q106 119 301 119q88 0 162 -39q72 -37 115 -108v125h219v-742q145 41 221 156q78 119 78 293q0 143 -55 260q-57 121 -168 213q-94 78 -215 121q-117 41 -265 41q-127 0 -243 -35q-102 -31 -207 -104q-143 -109 -219 -271q-76 -160 -76 -360q0 -154 49 -293 q49 -137 137 -238q106 -119 245.5 -180t303.5 -61q119 0 236 34q115 35 217 101l57 -94q-127 -82 -266 -125q-138 -43 -283 -43q-197 0 -356 63q-166 66 -289 189q-127 125 -192 290q-66 169 -66 357zM827 543q0 -150 60 -236q61 -88 160 -88q102 0 163 78q61 76 62 207v76 q0 129 -62 208q-59 78 -163 78q-96 0 -160 -88q-60 -83 -60 -235z" />
<glyph unicode="A" horiz-adv-x="1587" d="M-16 0v121h122l562 1372h239l563 -1372h142v-121h-699v121h146l-123 305h-561l-125 -305h178v-121h-444zM424 547h463l-230 571z" />
<glyph unicode="B" horiz-adv-x="1730" d="M96 0v121h191v1251h-191v121h885q272 0 409.5 -92t137.5 -277q0 -135 -94 -211q-96 -78 -281 -98q223 -20 344 -121q121 -98 121 -262q0 -223 -168 -327.5t-524 -104.5h-830zM672 121h143q193 0 283 76q92 78 92 235q0 160 -92 240q-90 78 -283 78h-143v-629zM672 870 h131q172 0 256 62q82 61 82 192q0 129 -80 189q-82 59 -258 59h-131v-502z" />
<glyph unicode="C" horiz-adv-x="1628" d="M86 745.5q0 356.5 219 565.5t598 209q132 0 277 -31q131 -29 305 -98v-367h-127q-41 193 -141 281q-106 94 -273 94q-215 0 -323 -160q-106 -158 -106.5 -493.5t106.5 -493.5q109 -160 325 -160q150 0 244 82t137 252h199q-59 -233 -211 -342q-156 -113 -412 -113 q-379 0 -598 209t-219 565.5z" />
<glyph unicode="D" horiz-adv-x="1775" d="M96 0v121h191v1251h-191v121h766q399 0 615 -193q213 -190 213 -552q0 -360 -213 -555q-211 -193 -615 -193h-766zM672 121h139q236 0 342 149q109 152 109 478q0 324 -109 475q-106 150 -342 149h-139v-1251z" />
<glyph unicode="E" horiz-adv-x="1560" d="M96 0v121h191v1251h-191v121h1342v-352h-138v215h-628v-479h391v190h137v-516h-137v190h-391v-604h647v215h137v-352h-1360z" />
<glyph unicode="F" horiz-adv-x="1452" d="M96 0v121h191v1251h-191v121h1331v-352h-137v215h-616v-479h379v190h137v-516h-137v190h-379v-620h235v-121h-813z" />
<glyph unicode="G" horiz-adv-x="1748" d="M86 745.5q0 360.5 219 567.5t604 207q162 0 316 -31q141 -29 311 -98v-367h-127q-47 199 -149.5 287t-296.5 88q-231 0 -340 -158t-109 -496q0 -336 104 -495q102 -158 324 -158q86 0 155.5 18.5t131.5 57.5v410h-180v120h538v-573q-184 -84 -336 -117q-170 -37 -342 -37 q-385 0 -604 207t-219 567.5z" />
<glyph unicode="H" horiz-adv-x="1933" d="M96 0v121h191v1251h-191v121h768v-121h-192v-502h594v502h-191v121h768v-121h-192v-1251h192v-121h-768v121h191v612h-594v-612h192v-121h-768z" />
<glyph unicode="I" horiz-adv-x="956" d="M96 0v121h191v1251h-191v121h768v-121h-192v-1251h192v-121h-768z" />
<glyph unicode="J" horiz-adv-x="968" d="M-150 -123h130q6 -96 45 -137q41 -45 114 -45q94 0 135 74q39 72 39 280v1323h-217v121h795v-121h-191v-1331q0 -244 -122 -354q-125 -113 -390 -113q-94 0 -168 16q-92 20 -170 52v235z" />
<glyph unicode="K" horiz-adv-x="1779" d="M96 0v121h191v1251h-191v121h768v-121h-192v-545l633 545h-160v121h557v-121h-199l-536 -461l729 -790h147v-121h-506l-665 725v-604h192v-121h-768z" />
<glyph unicode="L" horiz-adv-x="1439" d="M96 0v121h191v1251h-191v121h768v-121h-192v-1235h588v236h135v-373h-1299z" />
<glyph unicode="M" horiz-adv-x="2265" d="M86 0v121h190v1251h-190v121h616l426 -958l428 958h615v-121h-191v-1251h191v-121h-768v121h190v1139l-463 -1041h-253l-461 1041v-1139h190v-121h-520z" />
<glyph unicode="N" horiz-adv-x="1871" d="M90 0v121h191v1251h-191v121h467l901 -1057v936h-190v121h522v-121h-191v-1372h-262l-915 1079v-958h190v-121h-522z" />
<glyph unicode="O" horiz-adv-x="1783" d="M86 745q0 360 215 568q217 207 590 207q379 0 592 -205t213 -569.5t-215 -569.5q-213 -205 -590 -205q-379 0 -592 204.5t-213 569.5zM514 745.5q0 -325.5 94 -491.5q92 -162 282.5 -162t285.5 162q92 160 92 491.5t-92 491.5q-94 162 -285 162t-283 -162 q-94 -166 -94 -491.5z" />
<glyph unicode="P" horiz-adv-x="1538" d="M96 0v121h191v1251h-191v121h850q250 0 395 -119q147 -121 148 -317q0 -200 -148 -320q-145 -119 -395 -119h-274v-497h241v-121h-817zM672 739h112q129 0 207 86q78 88 78 232q0 141 -78 229q-78 86 -207 86h-112v-633z" />
<glyph unicode="Q" horiz-adv-x="1783" d="M86 745q0 360 215 568q217 207 590 207q379 0 592 -205t213 -570q0 -322 -164 -516q-170 -201 -469 -245q51 -57 129 -82q77 -25 197 -25h51v-246h-29q-193 0 -317 82q-126 83 -209 258q-375 6 -588 209q-211 203 -211 565zM514 745.5q0 -325.5 94 -491.5 q92 -162 282.5 -162t285.5 162q92 160 92 491.5t-92 491.5q-94 162 -285 162t-283 -162q-94 -166 -94 -491.5z" />
<glyph unicode="R" horiz-adv-x="1701" d="M96 0v121h191v1251h-191v121h852q260 0 401.5 -104.5t141.5 -296.5q0 -158 -100 -246q-106 -92 -304 -117q86 -12 150 -59q59 -45 106 -133l218 -416h153v-121h-491l-238 451q-66 137 -117 178q-47 39 -135 39h-61v-547h192v-121h-768zM672 788h131q139 0 215 76 t76 217.5t-76 214.5q-80 76 -215 76h-131v-584z" />
<glyph unicode="S" horiz-adv-x="1478" d="M135 1051q0 223 147.5 346t413.5 123q125 0 273 -23q135 -20 293 -65v-330h-127q-29 154 -127 225q-100 72 -279 72q-147 0 -223 -51.5t-76 -153.5q0 -92 51 -141q51 -47 256 -101l224 -55q211 -53 301 -162q94 -113 94 -303q0 -227 -156 -344t-459 -117q-147 0 -290 25 q-145 25 -293 76v354h127q27 -168 137 -252q106 -82 299 -82q154 0 235.5 59.5t81.5 172.5q0 92 -55 141t-227 92l-224 55q-219 55 -309 156q-88 97 -88 283z" />
<glyph unicode="T" horiz-adv-x="1523" d="M23 1120v373h1480v-373h-135v236h-412v-1235h199v-121h-784v121h198v1235h-409v-236h-137z" />
<glyph unicode="U" horiz-adv-x="1785" d="M70 1372v121h768v-121h-191v-747q0 -279 86 -389q88 -113 299 -113q207 0 293 112.5t86 389.5v747h-190v121h520v-121h-191v-768q0 -342 -147 -487q-150 -145 -498 -146q-344 0 -495 148q-150 147 -150 487v766h-190z" />
<glyph unicode="V" horiz-adv-x="1587" d="M-12 1372v121h700v-121h-145l403 -989l406 989h-178v121h444v-121h-125l-563 -1372h-238l-563 1372h-141z" />
<glyph unicode="W" horiz-adv-x="2299" d="M-18 1372v121h708v-121h-160l285 -917l322 1038h284l328 -1055l291 934h-178v121h462v-121h-153l-426 -1372h-258l-338 1087l-338 -1087h-258l-426 1372h-145z" />
<glyph unicode="X" horiz-adv-x="1587" d="M10 1372v121h742v-121h-164l289 -420l286 420h-174v121h520v-121h-184l-369 -536l490 -715h141v-121h-745v121h166l-314 454l-311 -454h184v-121h-530v121h184l393 571l-467 680h-137z" />
<glyph unicode="Y" horiz-adv-x="1460" d="M-18 1372v121h716v-121h-166l336 -569l334 569h-149v121h428v-121h-127l-414 -702v-549h201v-121h-789v121h201v497l-444 754h-127z" />
<glyph unicode="Z" horiz-adv-x="1492" d="M76 0v141l891 1215h-715v-223h-137v360h1296v-141l-881 -1215h754v209h137v-346h-1345z" />
<glyph unicode="[" horiz-adv-x="968" d="M256 -270v1826h567v-120h-213v-1586h213v-120h-567z" />
<glyph unicode="\" horiz-adv-x="747" d="M0 1493h221l527 -1683h-222z" />
<glyph unicode="]" horiz-adv-x="968" d="M145 -150h213v1586h-213v120h568v-1826h-568v120z" />
<glyph unicode="^" horiz-adv-x="1714" d="M207 936l543 557h223l536 -557h-213l-438 315l-438 -315h-213z" />
<glyph unicode="_" d="M0 -293h1024v-190h-1024v190z" />
<glyph unicode="`" d="M141 1638h279l258 -376h-164z" />
<glyph unicode="a" horiz-adv-x="1325" d="M84 309q0 180 125 268.5t379 88.5h186v63q0 129 -61.5 190.5t-188.5 61.5q-106 0 -164 -43q-57 -41 -81 -143h-113v229q90 31 196 51q90 16 216 17q287 0 417 -107q133 -109 133 -332v-532h152v-121h-506v135q-74 -88 -156 -125q-84 -39 -196 -39q-162 0 -250 88t-88 250 zM436 338q0 -104 39 -152q41 -49 117 -49q86 0 133 53q49 55 49 144v213h-133q-100 0 -152 -53q-53 -58 -53 -156z" />
<glyph unicode="b" horiz-adv-x="1431" d="M47 0v121h152v1315h-152v120h506v-628q47 84 121 123q78 41 188 41q227 0 357 -150q131 -154 131 -410q0 -258 -131 -411q-129 -150 -357 -150q-111 0 -188 41q-74 39 -121 123v-135h-506zM553 479q0 -184 47 -268t154 -84q111 0 153 88q45 94 45 317q0 225 -45 316 q-43 88 -153 88q-109 0 -154 -82q-47 -84 -47 -270v-105z" />
<glyph unicode="c" horiz-adv-x="1245" d="M84 532q0 264 153.5 412t428.5 148q117 0 225 -21q117 -23 229 -63v-295h-112q-16 139 -78 200q-66 66 -178 66q-150 0 -211.5 -100.5t-61.5 -346.5q0 -240 61.5 -344t198.5 -104q109 0 172 63q61 61 78 185h166q-37 -180 -155.5 -270.5t-319.5 -90.5q-283 0 -440 148 q-156 147 -156 413z" />
<glyph unicode="d" horiz-adv-x="1431" d="M84 532q0 258 129 410q129 150 356 150q111 0 189 -41q74 -39 121 -123v508h-152v120h506v-1435h151v-121h-505v135q-47 -84 -121 -123q-78 -41 -189 -41q-227 0 -356 150t-129 411zM479 532q0 -229 45 -317t154 -88q104 0 153 84q47 80 48 268v105q0 190 -48 270 q-49 82 -153 82q-109 0 -154 -88q-45 -91 -45 -316z" />
<glyph unicode="e" horiz-adv-x="1302" d="M84 532q0 264 152 412q150 147 419 148q264 0 405.5 -156t149.5 -455h-731v-8q0 -205 61.5 -297t200.5 -92q115 0 187 61q70 59 90 177h166q-43 -182 -170 -267q-125 -84 -359 -84q-274 0 -424 146q-147 145 -147 415zM479 600h342q0 211 -39 295t-133 84q-92 0 -131 -82 q-39 -80 -39 -279v-18z" />
<glyph unicode="f" horiz-adv-x="880" d="M63 942v121h158v133q0 176 113 268q114 92 332 92q78 0 165 -10q78 -8 160 -28v-228h-112q-10 82 -45 117q-37 37 -107 37q-80 0 -117 -58q-35 -55 -35 -186v-137h267v-121h-267v-821h205v-121h-710v121h151v821h-158z" />
<glyph unicode="g" horiz-adv-x="1431" d="M84 532q0 258 129 410q129 150 356 150q111 0 189 -41q74 -39 121 -123v135h505v-121h-151v-928q0 -223 -160 -346t-450 -123q-100 0 -215 17q-111 16 -224 49v254h113q16 -104 84 -156q70 -51 199 -51q166 0 231 78q68 80 68 278v121q-47 -84 -121 -123 q-78 -41 -189 -41q-227 0 -356 150t-129 411zM479 532q0 -229 45 -317t154 -88q104 0 153 84q47 80 48 268v105q0 190 -48 270q-49 82 -153 82q-109 0 -154 -88q-45 -91 -45 -316z" />
<glyph unicode="h" horiz-adv-x="1488" d="M63 1436v120h512v-643q66 96 146 137.5t207 41.5q178 0 270 -104.5t92 -311.5v-555h152v-121h-635v121h129v565q0 135 -35 188q-33 51 -119 52q-111 0 -157 -78q-49 -80 -50 -250v-477h130v-121h-635v121h151v1315h-158z" />
<glyph unicode="i" horiz-adv-x="776" d="M70 0v121h151v821h-151v121h505v-942h152v-121h-657zM188 1364q0 82 55.5 137t137.5 55q80 0 135 -55t55 -137q0 -80 -55 -135t-135 -55q-82 0 -137.5 55t-55.5 135z" />
<glyph unicode="j" horiz-adv-x="739" d="M-152 -190h113q4 -84 31 -117q29 -35 96 -35q74 0 102.5 47t28.5 170v1067h-151v121h505v-1188q0 -163 -116 -246q-119 -84 -340 -84q-51 0 -127 11q-59 8 -142 28v226zM178 1364q0 82 55.5 137t137.5 55q78 0 135 -57q55 -55 55 -135t-55 -135t-135 -55q-82 0 -137.5 55 t-55.5 135z" />
<glyph unicode="k" horiz-adv-x="1417" d="M70 0v121h151v1315h-151v120h505v-999l429 385h-127v121h485v-121h-197l-274 -246l448 -575h115v-121h-610v121h125l-295 379l-99 -88v-291h134v-121h-639z" />
<glyph unicode="l" horiz-adv-x="776" d="M70 0v121h151v1315h-151v120h505v-1435h152v-121h-657z" />
<glyph unicode="m" horiz-adv-x="2166" d="M70 0v121h151v821h-151v121h505v-150q61 92 141.5 135.5t190.5 43.5q131 0 211 -50q82 -51 125 -153q72 106 160 155q82 47 201 48q186 0 274 -103q90 -106 90 -313v-555h152v-121h-633v121h127v502q0 200 -31 251t-113 52q-96 0 -147 -72t-51 -207v-526h127v-121h-608 v121h127v502q0 200 -31 251t-113 52q-96 0 -147.5 -72t-51.5 -207v-526h127v-121h-632z" />
<glyph unicode="n" horiz-adv-x="1488" d="M70 0v121h151v821h-151v121h505v-150q66 96 146 137.5t207 41.5q178 0 270 -104.5t92 -311.5v-555h152v-121h-635v121h129v565q0 135 -35 188q-33 51 -119 52q-111 0 -157 -78q-49 -80 -50 -250v-477h130v-121h-635z" />
<glyph unicode="o" horiz-adv-x="1363" d="M84 532q0 264 159.5 412t440.5 148t440.5 -147.5t159.5 -412.5q0 -261 -160 -411q-158 -150 -440.5 -150t-439.5 150q-160 150 -160 411zM479 532q0 -256 45 -352t160 -96q111 0 158 96q45 92 45 352q0 258 -45 351q-47 96 -158 96q-113 0 -160 -96q-45 -93 -45 -351z " />
<glyph unicode="p" horiz-adv-x="1431" d="M47 -305h152v1247h-152v121h506v-135q47 84 121 123q78 41 188 41q227 0 357 -150q131 -154 131 -410q0 -258 -131 -411q-129 -150 -357 -150q-111 0 -188 41q-74 39 -121 123v-440h164v-121h-670v121zM553 479q0 -184 47 -268t154 -84q111 0 153 88q45 94 45 317 q0 225 -45 316q-43 88 -153 88q-109 0 -154 -82q-47 -84 -47 -270v-105z" />
<glyph unicode="q" horiz-adv-x="1431" d="M84 532q0 258 129 410q129 150 356 150q111 0 189 -41q74 -39 121 -123v135h505v-121h-151v-1247h151v-121h-669v121h164v440q-47 -84 -121 -123q-78 -41 -189 -41q-227 0 -356 150t-129 411zM479 532q0 -229 45 -317t154 -88q104 0 153 84q47 80 48 268v105 q0 190 -48 270q-49 82 -153 82q-109 0 -154 -88q-45 -91 -45 -316z" />
<glyph unicode="r" horiz-adv-x="1077" d="M59 942v121h516v-189q53 113 138 164q88 53 209 54q18 0 75 -5q45 -4 103 -12v-317h-113q-6 82 -47 127q-39 41 -115 41q-117 0 -184 -103q-66 -98 -66 -282v-420h193v-121h-698v121h151v821h-162z" />
<glyph unicode="s" horiz-adv-x="1150" d="M88 750q0 172 121 258q117 84 369 84q100 0 200 -15q104 -14 236 -49v-268h-113q-10 109 -77.5 164t-196.5 55q-106 0 -164 -35q-55 -35 -55 -100q0 -51 32 -84q31 -31 115 -53l145 -37q207 -51 289 -131q80 -76 80 -217q0 -178 -129 -264.5t-399 -86.5q-106 0 -209 15 q-125 16 -236 45v297h113q14 -117 90 -180.5t203 -63.5q108 0 166 37q57 37 57 108q0 65 -37 99q-41 39 -141 61l-146 37q-166 40 -239 117q-74 76 -74 207z" />
<glyph unicode="t" horiz-adv-x="944" d="M49 942v121h154v330h354v-330h295v-121h-295v-651q0 -137 22.5 -172t79.5 -35q63 0 95 43q29 41 32 133h150q-10 -162 -88 -225.5t-270 -63.5q-221 0 -297 68q-78 68 -78 252v651h-154z" />
<glyph unicode="u" horiz-adv-x="1488" d="M47 942v121h506v-621q0 -201 33 -252q35 -53 121 -53q111 0 157 78q49 80 49 252v475h-129v121h484v-942h151v-121h-506v150q-66 -96 -145.5 -137.5t-206.5 -41.5q-178 0 -270 104.5t-92 311.5v555h-152z" />
<glyph unicode="v" horiz-adv-x="1189" d="M-37 942v121h610v-121h-129l269 -672l268 672h-139v121h399v-121h-123l-377 -942h-284l-377 942h-117z" />
<glyph unicode="w" horiz-adv-x="1761" d="M-18 942v121h602v-121h-125l196 -575l238 696h211l242 -709l200 588h-139v121h397v-121h-125l-321 -942h-244l-225 666l-227 -666h-242l-322 942h-116z" />
<glyph unicode="x" horiz-adv-x="1220" d="M0 0v121h152l282 397l-305 424h-119v121h649v-121h-129l189 -264l188 264h-131v121h414v-121h-141l-271 -379l316 -442h141v-121h-676v121h137l-200 280l-201 -280h143v-121h-438z" />
<glyph unicode="y" horiz-adv-x="1189" d="M-27 942v121h613v-121h-127l270 -629l252 629h-141v121h399v-121h-129l-471 -1182q-49 -117 -116.5 -166t-182.5 -49q-57 0 -109 11q-68 14 -131 32v222h113q4 -78 37 -115t100.5 -37t104.5 35q40 37 80 135l16 37l-463 1077h-115z" />
<glyph unicode="z" horiz-adv-x="1161" d="M72 0v121l610 825h-459v-182h-119v299h990v-119l-611 -825h492v192h119v-311h-1022z" />
<glyph unicode="{" horiz-adv-x="1316" d="M172 551v121h61q143 0 195 57q53 59 53 209v250q0 111 13 166q12 53 41 92q49 61 133 86q82 25 317 24h148v-120h-103q-113 0 -153.5 -47.5t-40.5 -182.5v-270q0 -160 -50 -227q-47 -66 -178 -97q129 -33 180 -100q47 -61 48 -225v-271q0 -135 41 -182t153 -47h103v-121 h-148q-236 0 -317 25q-84 25 -133 86q-29 39 -41 92q-12 55 -13 166v250q0 150 -53 209q-51 57 -195 57h-61z" />
<glyph unicode="|" horiz-adv-x="743" d="M264 -483v2048h215v-2048h-215z" />
<glyph unicode="}" horiz-adv-x="1316" d="M186 -213h101q111 0 153 47q41 43 41 182v271q0 158 49.5 225.5t180.5 99.5q-131 31 -180.5 98.5t-49.5 225.5v270q0 139 -41 183q-43 47 -153 47h-101v120h146q233 0 317 -24.5t133 -85.5q29 -39 41 -92q12 -55 13 -166v-250q0 -150 53 -209q51 -57 194 -57h62v-121h-62 q-143 0 -194 -57q-53 -59 -53 -209v-250q0 -111 -13 -166q-12 -53 -41 -92q-49 -61 -133 -86t-317 -25h-146v121z" />
<glyph unicode="~" horiz-adv-x="1714" d="M217 453v206q96 88 189 127q94 41 192 41t246 -57q10 -4 16 -7t10 -3l15 -6q172 -68 274 -68q77 0 160 37q94 41 180 108v-206q-92 -86 -186 -127t-194.5 -41t-248.5 57q-8 2 -14 6t-10 4q-2 0 -9.5 3t-11.5 5q-174 66 -268 66q-77 0 -160 -37q-94 -40 -180 -108z" />
<glyph unicode="&#xa1;" horiz-adv-x="897" d="M260 1329q0 80 55.5 135.5t133.5 55.5q80 0 135 -55.5t55 -135.5q0 -78 -55.5 -133t-134.5 -55q-78 0 -133.5 55t-55.5 133zM262 0l117 842v190h139v-190l119 -842h-375z" />
<glyph unicode="&#xa2;" horiz-adv-x="1423" d="M160 532q0 262 151.5 407.5t427.5 152.5v264h121v-269q53 -2 139 -22q63 -14 199 -57v-295h-113q-16 127 -69 190q-55 63 -156 76v-891q90 14 144 78q51 61 63 166h166q-31 -156 -127 -246t-246 -109v-276h-121v270q-281 6 -428 152q-151 147 -151 409zM553 532 q0 -209 43 -311q43 -100 143 -127v875q-100 -25 -143 -125q-43 -103 -43 -312z" />
<glyph unicode="&#xa3;" horiz-adv-x="1423" d="M147 0v121h193v573h-193v121h193v277q0 213 133 321q131 106 408 107q76 0 155 -9q115 -12 211 -26v-283h-121q-6 96 -55 152q-47 53 -133 53q-115 0 -168 -74q-51 -72 -51 -250v-268h352v-121h-352v-557h420v228h137v-365h-1129z" />
<glyph unicode="&#xa4;" horiz-adv-x="1302" d="M76 215l209 209q-29 41 -45 100q-14 49 -15 117q0 66 15 117q16 55 45 100l-209 205l153 158l207 -211q47 31 103 45q51 14 114 14q57 0 109 -14q57 -16 112 -45l205 211l152 -154l-209 -205q27 -49 45 -112q14 -51 14 -109q0 -66 -14 -115q-16 -59 -45 -100l209 -211 l-156 -154l-207 211q-41 -29 -100 -45q-49 -14 -115 -14q-61 0 -112 14q-57 16 -105 41l-209 -207zM434 641q0 -92 63.5 -155.5t155.5 -63.5t155.5 63.5t63.5 155.5t-63.5 155.5t-155.5 63.5t-155.5 -63.5t-63.5 -155.5z" />
<glyph unicode="&#xa5;" horiz-adv-x="1423" d="M39 1372v121h694v-121h-170l258 -551l256 551h-151v121h436v-121h-135l-221 -477h292v-117h-350l-53 -116v-78h403v-117h-403v-346h190v-121h-759v121h190v346h-403v117h403v59l-61 135h-342v117h286l-223 477h-137z" />
<glyph unicode="&#xa6;" horiz-adv-x="743" d="M264 -350v758h215v-758h-215zM264 674v758h215v-758h-215z" />
<glyph unicode="&#xa7;" horiz-adv-x="1069" d="M63 674q0 104 58 176q58 74 172 117q-83 46 -123 110q-39 63 -39 154q0 135 109 213q106 76 305 76q90 0 162 -11q70 -10 190 -34v-240h-119q-6 86 -57 129q-53 43 -150 43q-80 0 -127 -37q-45 -37 -45 -104q0 -47 27 -80q28 -34 117 -80l135 -72q186 -96 260 -182 q70 -82 70 -199q0 -106 -58 -178q-59 -76 -170 -117q80 -45 121 -110q39 -63 39 -154q0 -135 -109 -213q-106 -76 -309 -76q-100 0 -174 11q-82 10 -192 34v240h118q10 -92 60 -131q53 -41 158 -41q86 0 133 37t47 106q0 47 -27 80q-31 37 -117 80l-135 72 q-190 100 -260 182t-70 199zM305 745q0 -61 45 -112q43 -49 156 -109l168 -88q45 33 69 74q23 37 23 82q0 57 -47 110q-45 51 -158 111l-166 88q-51 -39 -67 -72q-23 -41 -23 -84z" />
<glyph unicode="&#xa8;" d="M141 1468.5q0 59.5 43 102.5t105 43q59 0 102 -43t43 -103q0 -61 -43 -104t-102.5 -43t-104.5 45q-43 43 -43 102.5zM588 1468.5q0 59.5 43 102.5t104 43t104.5 -43t43.5 -102.5t-43 -102.5q-45 -45 -104.5 -45t-104.5 45q-43 43 -43 102.5z" />
<glyph unicode="&#xa9;" horiz-adv-x="2048" d="M283 741q0 152 55 285t162 240q109 109 241 164t283 55t283 -55q133 -55 241 -164q106 -106 161.5 -239.5t55.5 -285.5q0 -154 -55 -282q-59 -135 -162 -240q-109 -109 -241 -164t-283 -55t-283 55q-133 55 -241 164q-102 104 -162 240q-55 128 -55 282zM436 741.5 q0 -120.5 43 -225t129 -190.5t190.5 -129t225.5 -43t225.5 43t190.5 129t129 190.5t43 225t-43 225t-129 190.5q-90 90 -191 131q-104 43 -225 43t-225 -43q-100 -41 -191 -131q-86 -86 -129 -190.5t-43 -225zM606 741.5q0 200.5 117 321.5t313 121q78 0 158 -19 q88 -20 168 -57v-223h-105q-12 94 -65 147t-133 53q-104 0 -164 -92q-59 -94 -59 -252q0 -162 59 -252t164 -90q76 0 123 45q51 47 71 136h138q-29 -139 -119 -209t-246 -70q-186 0 -303 121q-117 119 -117 319.5z" />
<glyph unicode="&#xaa;" horiz-adv-x="995" d="M61 973q0 127 94.5 190.5t286.5 63.5h140v28q0 90 -47 134q-49 45 -142 45q-80 0 -121 -33q-45 -35 -53 -94h-96v166q82 25 149 34q76 12 162 13q215 0 313.5 -74t98.5 -234v-362h115v-94h-379v92q-51 -57 -115 -84q-61 -27 -150 -27q-123 0 -190 62q-66 59 -66 174z M113 504v135h798v-135h-798zM326 993q0 -63 30.5 -96t87.5 -33q63 0 100.5 37t37.5 100v132h-101q-72 0 -114 -37q-41 -35 -41 -103z" />
<glyph unicode="&#xab;" horiz-adv-x="1280" d="M158 516v168l469 385v-147l-240 -322l240 -321v-148zM618 516v168l469 385v-147l-239 -322l239 -321v-148z" />
<glyph unicode="&#xac;" horiz-adv-x="1714" d="M217 676v227h1282v-616h-229v389h-1053z" />
<glyph unicode="&#xad;" horiz-adv-x="849" d="M111 414v270h628v-270h-628z" />
<glyph unicode="&#xae;" horiz-adv-x="2048" d="M283 741q0 152 55 285t162 240q109 109 241 164t283 55t283 -55q133 -55 241 -164q106 -106 161.5 -239.5t55.5 -285.5q0 -154 -55 -282q-59 -135 -162 -240q-109 -109 -241 -164t-283 -55t-283 55q-133 55 -241 164q-102 104 -162 240q-55 128 -55 282zM436 741.5 q0 -120.5 43 -225t129 -190.5t190.5 -129t225.5 -43t225.5 43t190.5 129t129 190.5t43 225t-43 225t-129 190.5q-90 90 -191 131q-104 43 -225 43t-225 -43q-100 -41 -191 -131q-86 -86 -129 -190.5t-43 -225zM649 352v82h86v643h-86v82h453q121 0 188 -55q70 -57 70 -150 q0 -89 -49 -141q-47 -49 -146 -59q43 -14 70 -37q31 -28 49 -68l100 -215h60v-82h-223l-117 254q-31 70 -62 90q-29 20 -84 21h-26v-283h86v-82h-369zM932 799h67q78 0 121 36.5t43 102.5t-43 102.5t-121 36.5h-67v-278z" />
<glyph unicode="&#xaf;" d="M197 1360v188h630v-188h-630z" />
<glyph unicode="&#xb0;" d="M178 1200q0 141 96.5 237.5t237.5 96.5q66 0 127 -25q51 -20 109 -73q49 -53 71 -109q25 -61 25 -126.5t-24.5 -127t-69.5 -106.5q-49 -49 -110.5 -74t-129.5 -25q-141 0 -236 95q-96 96 -96 237zM340 1200q0 -72 49 -121t123 -49t123 49t49 121t-51 123q-49 49 -121 49 q-74 0 -123 -49t-49 -123z" />
<glyph unicode="&#xb1;" horiz-adv-x="1714" d="M217 0v227h1282v-227h-1282zM217 698v228h526v358h230v-358h526v-228h-526v-358h-230v358h-526z" />
<glyph unicode="&#xb2;" horiz-adv-x="894" d="M86 684v133l129 84q190 125 238 193q49 70 49 163q0 88 -41 132q-43 47 -115 47q-66 0 -106.5 -41t-51.5 -111h-94v195q71 22 148 30q86 10 155 11q180 0 280.5 -63.5t100.5 -178.5q0 -83 -55 -148q-55 -66 -211 -153l-244 -139h414v96h100v-250h-696z" />
<glyph unicode="&#xb3;" horiz-adv-x="894" d="M90 711v200h96q6 -82 50 -120q41 -39 122 -39q88 0 134 43q47 43 47 124.5t-49.5 124.5t-139.5 43h-41v84h31q84 0 125 33q43 34 43 99q0 66 -39 98q-41 35 -111 35q-68 0 -106.5 -37t-44.5 -101h-96v183q100 20 163 28q82 10 138 11q182 0 272 -52q94 -53 94 -153 q0 -72 -53 -119q-55 -49 -154 -63q119 -14 183 -72q61 -55 61 -148q0 -123 -102.5 -184t-302.5 -61q-72 0 -160 10q-66 8 -160 33z" />
<glyph unicode="&#xb4;" d="M346 1262l258 376h279l-373 -376h-164z" />
<glyph unicode="&#xb5;" horiz-adv-x="1497" d="M57 -305h152v1247h-152v121h506v-596q0 -217 35 -274q33 -55 121 -56q106 0 155.5 80t49.5 250v475h-131v121h485v-942h152v-121h-506v125q-55 -84 -108.5 -119t-129.5 -35q-27 0 -61 11q-25 8 -62 30v-317h152v-121h-658v121z" />
<glyph unicode="&#xb6;" horiz-adv-x="1302" d="M147 1071q0 188 129.5 305t346.5 117h555v-125h-113v-1565h-152v1565h-163v-1565h-152v846q-219 18 -334 127q-117 111 -117 295z" />
<glyph unicode="&#xb7;" horiz-adv-x="712" d="M166 711q0 80 55 135t135 55t135.5 -55t55.5 -135q0 -78 -55.5 -133.5t-135.5 -55.5t-135 55.5t-55 133.5z" />
<glyph unicode="&#xb8;" d="M262 -219q41 -16 88 -27q39 -8 78 -8q63 0 92 23q31 25 31 69q0 25 -16 62q-14 31 -68 100h127q63 -66 92 -119q29 -51 29 -106q0 -86 -63.5 -131t-186.5 -45q-47 0 -98 6q-35 4 -105 20v156z" />
<glyph unicode="&#xb9;" horiz-adv-x="894" d="M143 1290v105l222 125h227v-742h164v-94h-594v94h164v613z" />
<glyph unicode="&#xba;" d="M61 1128q0 182 119 287q120 104 332 105q212 0 332 -105q119 -104 119 -286.5t-119 -286.5q-120 -104 -332 -105q-212 0 -332 105q-119 104 -119 286zM113 504v135h798v-135h-798zM369 1128.5q0 -167.5 32 -235.5q33 -70 111 -70q74 0 109 72q35 74 34 233q0 162 -34 236 q-33 70 -109 70q-78 0 -111 -70q-32 -68 -32 -235.5z" />
<glyph unicode="&#xbb;" horiz-adv-x="1280" d="M193 131v148l239 321l-239 322v147l469 -385v-168zM653 131v148l240 321l-240 322v147l469 -385v-168z" />
<glyph unicode="&#xbc;" horiz-adv-x="2134" d="M143 1290v105l222 125h227v-742h164v-94h-594v94h164v613zM1450 1520h170l-934 -1549h-170zM2044 16h-518v94h125v121h-363v88l379 533h252v-527h147v-94h-147v-121h125v-94zM1651 325v334l-240 -334h240z" />
<glyph unicode="&#xbd;" horiz-adv-x="2134" d="M143 1290v105l222 125h227v-742h164v-94h-594v94h164v613zM1450 1520h170l-934 -1549h-170zM1325 16v133l129 84q190 125 238 193q49 70 49 163q0 88 -41 132q-43 47 -115 47q-66 0 -106.5 -41t-51.5 -111h-94v195q71 22 148 30q86 10 155 11q180 0 280.5 -63.5 t100.5 -178.5q0 -83 -55 -148q-55 -66 -211 -153l-244 -139h414v96h100v-250h-696z" />
<glyph unicode="&#xbe;" horiz-adv-x="2134" d="M90 711v200h96q6 -82 50 -120q41 -39 122 -39q88 0 134 43q47 43 47 124.5t-49.5 124.5t-139.5 43h-41v84h31q84 0 125 33q43 34 43 99q0 66 -39 98q-41 35 -111 35q-68 0 -106.5 -37t-44.5 -101h-96v183q100 20 163 28q82 10 138 11q182 0 272 -52q94 -53 94 -153 q0 -72 -53 -119q-55 -49 -154 -63q119 -14 183 -72q61 -55 61 -148q0 -123 -102.5 -184t-302.5 -61q-72 0 -160 10q-66 8 -160 33zM1450 1520h170l-934 -1549h-170zM2044 16h-518v94h125v121h-363v88l379 533h252v-527h147v-94h-147v-121h125v-94zM1651 325v334l-240 -334 h240z" />
<glyph unicode="&#xbf;" horiz-adv-x="1198" d="M92 397q0 199 131 318q129 117 375 135v205h139v-299q-141 -43 -205 -135q-66 -94 -65 -246q0 -143 61.5 -217t180.5 -74q109 0 168 66q59 68 69 196h121v-307q-111 -31 -236 -51q-98 -16 -217 -17q-252 0 -387 110.5t-135 315.5zM479 1329q0 80 55.5 135.5t133.5 55.5 q80 0 135 -55.5t55 -135.5q0 -78 -55 -133t-135 -55q-78 0 -133.5 55t-55.5 133z" />
<glyph unicode="&#xc0;" horiz-adv-x="1587" d="M-16 0v121h122l562 1372h239l563 -1372h142v-121h-699v121h146l-123 305h-561l-125 -305h178v-121h-444zM424 547h463l-230 571zM756 1899l182 -264h-164l-297 264h279z" />
<glyph unicode="&#xc1;" horiz-adv-x="1587" d="M-16 0v121h122l562 1372h239l563 -1372h142v-121h-699v121h146l-123 305h-561l-125 -305h178v-121h-444zM424 547h463l-230 571zM788 1899h279l-297 -264h-164z" />
<glyph unicode="&#xc2;" horiz-adv-x="1587" d="M-16 0v121h122l562 1372h239l563 -1372h142v-121h-699v121h146l-123 305h-561l-125 -305h178v-121h-444zM424 547h463l-230 571zM618 1899h308l223 -264h-164l-213 161l-213 -161h-164z" />
<glyph unicode="&#xc3;" horiz-adv-x="1587" d="M-16 0v121h122l562 1372h239l563 -1372h142v-121h-699v121h146l-123 305h-561l-125 -305h178v-121h-444zM424 547h463l-230 571zM414 1635v12q0 123 55 190q53 66 153 66q63 0 142 -39q9 -3 12 -6l72 -33q39 -16 47 -18q25 -4 35 -4q41 0 65.5 24.5t24.5 69.5v4h110v-15 q0 -123 -53 -188t-155 -65q-31 0 -68 10q-41 12 -86 35l-57 28q-39 18 -52 21q-25 6 -45 6q-41 0 -65.5 -24.5t-24.5 -69.5v-4h-110z" />
<glyph unicode="&#xc4;" horiz-adv-x="1587" d="M-16 0v121h122l562 1372h239l563 -1372h142v-121h-699v121h146l-123 305h-561l-125 -305h178v-121h-444zM424 547h463l-230 571zM401 1776q0 61 43 104t105 43q59 0 102 -43t43 -104q0 -59 -43 -102.5t-102 -43.5q-61 0 -104.5 43.5t-43.5 102.5zM848 1776q0 61 43 104 t104 43t104.5 -43t43.5 -104q0 -59 -43 -102.5t-105 -43.5q-61 0 -104 43.5t-43 102.5z" />
<glyph unicode="&#xc5;" horiz-adv-x="1587" d="M-16 0v121h122l519 1263q-61 39 -90 97q-31 61 -31 135q0 117 84 201t200.5 84t200.5 -84t84 -201q0 -76 -31 -133q-33 -59 -90 -99l518 -1263h142v-121h-699v121h146l-123 305h-561l-125 -305h178v-121h-444zM424 547h463l-228 571zM657 1616q0 -53 39 -92t92.5 -39 t92.5 39t39 92t-39 92t-92.5 39t-92.5 -39t-39 -92z" />
<glyph unicode="&#xc6;" horiz-adv-x="2117" d="M-63 0v121h114l592 1251h-201v121h1551v-352h-138v215h-602v-479h367v190h135v-516h-135v190h-367v-604h623v215h135v-352h-1335v121h190v303h-522l-143 -303h164v-121h-428zM401 545h465v827h-75z" />
<glyph unicode="&#xc7;" horiz-adv-x="1628" d="M86 745.5q0 356.5 219 565.5t598 209q132 0 277 -31q131 -29 305 -98v-367h-127q-41 193 -141 281q-106 94 -273 94q-215 0 -323 -160q-106 -158 -106.5 -493.5t106.5 -493.5q109 -160 325 -160q150 0 244 82t137 252h199q-59 -233 -211 -342q-156 -113 -412 -113 q-379 0 -598 209t-219 565.5zM629 -219q41 -16 88 -27q39 -8 78 -8q63 0 92 23q31 25 31 69q0 25 -16 62q-14 31 -68 100h127q63 -66 92 -119q29 -51 29 -106q0 -86 -63.5 -131t-186.5 -45q-47 0 -98 6q-35 4 -105 20v156z" />
<glyph unicode="&#xc8;" horiz-adv-x="1560" d="M96 0v121h191v1251h-191v121h1342v-352h-138v215h-628v-479h391v190h137v-516h-137v190h-391v-604h647v215h137v-352h-1360zM799 1899l182 -264h-164l-297 264h279z" />
<glyph unicode="&#xc9;" horiz-adv-x="1560" d="M96 0v121h191v1251h-191v121h1342v-352h-138v215h-628v-479h391v190h137v-516h-137v190h-391v-604h647v215h137v-352h-1360zM831 1899h279l-297 -264h-164z" />
<glyph unicode="&#xca;" horiz-adv-x="1560" d="M96 0v121h191v1251h-191v121h1342v-352h-138v215h-628v-479h391v190h137v-516h-137v190h-391v-604h647v215h137v-352h-1360zM661 1899h308l223 -264h-164l-213 161l-213 -161h-164z" />
<glyph unicode="&#xcb;" horiz-adv-x="1560" d="M96 0v121h191v1251h-191v121h1342v-352h-138v215h-628v-479h391v190h137v-516h-137v190h-391v-604h647v215h137v-352h-1360zM444 1776q0 61 43 104t105 43q59 0 102 -43t43 -104q0 -59 -43 -102.5t-102 -43.5q-61 0 -104.5 43.5t-43.5 102.5zM891 1776q0 61 43 104 t104 43t104.5 -43t43.5 -104q0 -59 -43 -102.5t-105 -43.5q-61 0 -104 43.5t-43 102.5z" />
<glyph unicode="&#xcc;" horiz-adv-x="956" d="M96 0v121h191v1251h-191v121h768v-121h-192v-1251h192v-121h-768zM463 1899l182 -264h-164l-297 264h279z" />
<glyph unicode="&#xcd;" horiz-adv-x="956" d="M96 0v121h191v1251h-191v121h768v-121h-192v-1251h192v-121h-768zM495 1899h279l-297 -264h-164z" />
<glyph unicode="&#xce;" horiz-adv-x="956" d="M96 0v121h191v1251h-191v121h768v-121h-192v-1251h192v-121h-768zM325 1899h308l223 -264h-164l-213 161l-213 -161h-164z" />
<glyph unicode="&#xcf;" horiz-adv-x="956" d="M96 0v121h191v1251h-191v121h768v-121h-192v-1251h192v-121h-768zM108 1776q0 61 43 104t105 43q59 0 102 -43t43 -104q0 -59 -43 -102.5t-102 -43.5q-61 0 -104.5 43.5t-43.5 102.5zM555 1776q0 61 43 104t104 43t104.5 -43t43.5 -104q0 -59 -43 -102.5t-105 -43.5 q-61 0 -104 43.5t-43 102.5z" />
<glyph unicode="&#xd0;" horiz-adv-x="1789" d="M88 713v137h213v522h-192v121h768q397 0 612 -193q213 -190 213 -552q0 -360 -213 -555q-211 -193 -612 -193h-768v121h192v592h-213zM686 121h139q236 0 342.5 149.5t106.5 477.5q0 326 -106.5 475t-342.5 149h-139v-522h332v-137h-332v-592z" />
<glyph unicode="&#xd1;" horiz-adv-x="1871" d="M90 0v121h191v1251h-191v121h467l901 -1057v936h-190v121h522v-121h-191v-1372h-262l-915 1079v-958h190v-121h-522zM578 1635v12q0 123 55 190q53 66 153 66q63 0 142 -39q9 -3 12 -6l72 -33q39 -16 47 -18q25 -4 35 -4q41 0 65.5 24.5t24.5 69.5v4h110v-15 q0 -123 -53 -188t-155 -65q-31 0 -68 10q-41 12 -86 35l-57 28q-39 18 -52 21q-25 6 -45 6q-41 0 -65.5 -24.5t-24.5 -69.5v-4h-110z" />
<glyph unicode="&#xd2;" horiz-adv-x="1783" d="M86 745q0 360 215 568q217 207 590 207q379 0 592 -205t213 -569.5t-215 -569.5q-213 -205 -590 -205q-379 0 -592 204.5t-213 569.5zM514 745.5q0 -325.5 94 -491.5q92 -162 282.5 -162t285.5 162q92 160 92 491.5t-92 491.5q-94 162 -285 162t-283 -162 q-94 -166 -94 -491.5zM877 1899l182 -264h-164l-297 264h279z" />
<glyph unicode="&#xd3;" horiz-adv-x="1783" d="M86 745q0 360 215 568q217 207 590 207q379 0 592 -205t213 -569.5t-215 -569.5q-213 -205 -590 -205q-379 0 -592 204.5t-213 569.5zM514 745.5q0 -325.5 94 -491.5q92 -162 282.5 -162t285.5 162q92 160 92 491.5t-92 491.5q-94 162 -285 162t-283 -162 q-94 -166 -94 -491.5zM909 1899h279l-297 -264h-164z" />
<glyph unicode="&#xd4;" horiz-adv-x="1783" d="M86 745q0 360 215 568q217 207 590 207q379 0 592 -205t213 -569.5t-215 -569.5q-213 -205 -590 -205q-379 0 -592 204.5t-213 569.5zM514 745.5q0 -325.5 94 -491.5q92 -162 282.5 -162t285.5 162q92 160 92 491.5t-92 491.5q-94 162 -285 162t-283 -162 q-94 -166 -94 -491.5zM739 1899h308l223 -264h-164l-213 161l-213 -161h-164z" />
<glyph unicode="&#xd5;" horiz-adv-x="1783" d="M86 745q0 360 215 568q217 207 590 207q379 0 592 -205t213 -569.5t-215 -569.5q-213 -205 -590 -205q-379 0 -592 204.5t-213 569.5zM514 745.5q0 -325.5 94 -491.5q92 -162 282.5 -162t285.5 162q92 160 92 491.5t-92 491.5q-94 162 -285 162t-283 -162 q-94 -166 -94 -491.5zM535 1635v12q0 123 55 190q53 66 153 66q63 0 142 -39q9 -3 12 -6l72 -33q39 -16 47 -18q25 -4 35 -4q41 0 65.5 24.5t24.5 69.5v4h110v-15q0 -123 -53 -188t-155 -65q-31 0 -68 10q-41 12 -86 35l-57 28q-39 18 -52 21q-25 6 -45 6q-41 0 -65.5 -24.5 t-24.5 -69.5v-4h-110z" />
<glyph unicode="&#xd6;" horiz-adv-x="1783" d="M86 745q0 360 215 568q217 207 590 207q379 0 592 -205t213 -569.5t-215 -569.5q-213 -205 -590 -205q-379 0 -592 204.5t-213 569.5zM514 745.5q0 -325.5 94 -491.5q92 -162 282.5 -162t285.5 162q92 160 92 491.5t-92 491.5q-94 162 -285 162t-283 -162 q-94 -166 -94 -491.5zM522 1776q0 61 43 104t105 43q59 0 102 -43t43 -104q0 -59 -43 -102.5t-102 -43.5q-61 0 -104.5 43.5t-43.5 102.5zM969 1776q0 61 43 104t104 43t104.5 -43t43.5 -104q0 -59 -43 -102.5t-105 -43.5q-61 0 -104 43.5t-43 102.5z" />
<glyph unicode="&#xd7;" horiz-adv-x="1714" d="M264 201l441 440l-441 440l154 156l440 -440l440 440l154 -156l-440 -440l440 -440l-154 -154l-440 440l-440 -440z" />
<glyph unicode="&#xd8;" horiz-adv-x="1783" d="M68 12l200 201q-90 98 -137 236q-45 129 -45 296q0 360 215 568q217 207 590 207q164 0 293 -39q139 -41 237 -115l203 203l90 -90l-198 -199q88 -104 135 -238q45 -129 45 -297q0 -365 -215 -569q-213 -205 -590 -205q-162 0 -291 39t-238 117l-204 -205zM514 745 q0 -100 4 -143q8 -82 17 -123l677 678q-43 119 -125 180q-84 61 -196 62q-190 0 -283 -162q-94 -166 -94 -492zM571 334q45 -121 125 -182q78 -59 195 -60q195 0 287 166t92 526q0 66 -6 115q-6 53 -19 94z" />
<glyph unicode="&#xd9;" horiz-adv-x="1785" d="M70 1372v121h768v-121h-191v-747q0 -279 86 -389q88 -113 299 -113q207 0 293 112.5t86 389.5v747h-190v121h520v-121h-191v-768q0 -342 -147 -487q-150 -145 -498 -146q-344 0 -495 148q-150 147 -150 487v766h-190zM928 1899l182 -264h-164l-297 264h279z" />
<glyph unicode="&#xda;" horiz-adv-x="1785" d="M70 1372v121h768v-121h-191v-747q0 -279 86 -389q88 -113 299 -113q207 0 293 112.5t86 389.5v747h-190v121h520v-121h-191v-768q0 -342 -147 -487q-150 -145 -498 -146q-344 0 -495 148q-150 147 -150 487v766h-190zM960 1899h279l-297 -264h-164z" />
<glyph unicode="&#xdb;" horiz-adv-x="1785" d="M70 1372v121h768v-121h-191v-747q0 -279 86 -389q88 -113 299 -113q207 0 293 112.5t86 389.5v747h-190v121h520v-121h-191v-768q0 -342 -147 -487q-150 -145 -498 -146q-344 0 -495 148q-150 147 -150 487v766h-190zM790 1899h308l223 -264h-164l-213 161l-213 -161 h-164z" />
<glyph unicode="&#xdc;" horiz-adv-x="1785" d="M70 1372v121h768v-121h-191v-747q0 -279 86 -389q88 -113 299 -113q207 0 293 112.5t86 389.5v747h-190v121h520v-121h-191v-768q0 -342 -147 -487q-150 -145 -498 -146q-344 0 -495 148q-150 147 -150 487v766h-190zM573 1776q0 61 43 104t105 43q59 0 102 -43t43 -104 q0 -59 -43 -102.5t-102 -43.5q-61 0 -104.5 43.5t-43.5 102.5zM1020 1776q0 61 43 104t104 43t104.5 -43t43.5 -104q0 -59 -43 -102.5t-105 -43.5q-61 0 -104 43.5t-43 102.5z" />
<glyph unicode="&#xdd;" horiz-adv-x="1460" d="M-18 1372v121h716v-121h-166l336 -569l334 569h-149v121h428v-121h-127l-414 -702v-549h201v-121h-789v121h201v497l-444 754h-127zM747 1899h279l-297 -264h-164z" />
<glyph unicode="&#xde;" horiz-adv-x="1548" d="M96 0v121h191v1251h-191v121h815v-121h-239v-170h274q250 0 395 -119q147 -121 147.5 -317.5t-147.5 -316.5q-150 -121 -395 -121h-274v-207h241v-121h-817zM672 449h112q129 0 207 86q78 88 78 231q0 141 -78 229q-78 86 -207 86h-112v-632z" />
<glyph unicode="&#xdf;" horiz-adv-x="1554" d="M70 0v121h151v1026q0 203 139 305q141 104 410 104q260 0 397 -106q135 -104 162 -334h-22q-156 0 -234 -45q-80 -46 -80 -135q0 -39 23 -74q18 -29 106 -94l88 -63q176 -127 225.5 -207t49.5 -187q0 -162 -125 -250q-127 -90 -348 -90q-88 0 -168 15q-92 16 -187 45v258 h121q12 -106 61.5 -155.5t143.5 -49.5q77 0 123 43q47 43 47 117q0 106 -164 223q-8 6 -17 12t-16 10l-88 64q-102 76 -147 152q-45 78 -45 184q0 135 80 217q78 80 241 115q-6 125 -55 174t-160 49q-109 0 -157 -60q-49 -57 -50 -194v-1190h-505z" />
<glyph unicode="&#xe0;" horiz-adv-x="1325" d="M84 309q0 180 125 268.5t379 88.5h186v63q0 129 -61.5 190.5t-188.5 61.5q-106 0 -164 -43q-57 -41 -81 -143h-113v229q90 31 196 51q90 16 216 17q287 0 417 -107q133 -109 133 -332v-532h152v-121h-506v135q-74 -88 -156 -125q-84 -39 -196 -39q-162 0 -250 88t-88 250 zM436 338q0 -104 39 -152q41 -49 117 -49q86 0 133 53q49 55 49 144v213h-133q-100 0 -152 -53q-53 -58 -53 -156zM229 1638h279l258 -376h-164z" />
<glyph unicode="&#xe1;" horiz-adv-x="1325" d="M84 309q0 180 125 268.5t379 88.5h186v63q0 129 -61.5 190.5t-188.5 61.5q-106 0 -164 -43q-57 -41 -81 -143h-113v229q90 31 196 51q90 16 216 17q287 0 417 -107q133 -109 133 -332v-532h152v-121h-506v135q-74 -88 -156 -125q-84 -39 -196 -39q-162 0 -250 88t-88 250 zM436 338q0 -104 39 -152q41 -49 117 -49q86 0 133 53q49 55 49 144v213h-133q-100 0 -152 -53q-53 -58 -53 -156zM434 1262l258 376h279l-373 -376h-164z" />
<glyph unicode="&#xe2;" horiz-adv-x="1325" d="M84 309q0 180 125 268.5t379 88.5h186v63q0 129 -61.5 190.5t-188.5 61.5q-106 0 -164 -43q-57 -41 -81 -143h-113v229q90 31 196 51q90 16 216 17q287 0 417 -107q133 -109 133 -332v-532h152v-121h-506v135q-74 -88 -156 -125q-84 -39 -196 -39q-162 0 -250 88t-88 250 zM436 338q0 -104 39 -152q41 -49 117 -49q86 0 133 53q49 55 49 144v213h-133q-100 0 -152 -53q-53 -58 -53 -156zM223 1262l256 376h242l256 -376h-164l-213 225l-213 -225h-164z" />
<glyph unicode="&#xe3;" horiz-adv-x="1325" d="M84 309q0 180 125 268.5t379 88.5h186v63q0 129 -61.5 190.5t-188.5 61.5q-106 0 -164 -43q-57 -41 -81 -143h-113v229q90 31 196 51q90 16 216 17q287 0 417 -107q133 -109 133 -332v-532h152v-121h-506v135q-74 -88 -156 -125q-84 -39 -196 -39q-162 0 -250 88t-88 250 zM436 338q0 -104 39 -152q41 -49 117 -49q86 0 133 53q49 55 49 144v213h-133q-100 0 -152 -53q-53 -58 -53 -156zM242 1309v16q0 143 53 221q51 76 155 76q35 0 72 -12q35 -12 82 -43l72 -47l2 -2q45 -29 80 -29q41 0 65 35q25 33 25 96h110v-16q0 -143 -53 -222 q-51 -76 -155 -75q-35 0 -72 12q-35 12 -82 43l-72 47h-2q-45 31 -80 31q-41 0 -65 -35q-25 -33 -25 -96h-110z" />
<glyph unicode="&#xe4;" horiz-adv-x="1325" d="M84 309q0 180 125 268.5t379 88.5h186v63q0 129 -61.5 190.5t-188.5 61.5q-106 0 -164 -43q-57 -41 -81 -143h-113v229q90 31 196 51q90 16 216 17q287 0 417 -107q133 -109 133 -332v-532h152v-121h-506v135q-74 -88 -156 -125q-84 -39 -196 -39q-162 0 -250 88t-88 250 zM436 338q0 -104 39 -152q41 -49 117 -49q86 0 133 53q49 55 49 144v213h-133q-100 0 -152 -53q-53 -58 -53 -156zM229 1468.5q0 59.5 43 102.5t105 43q59 0 102 -43t43 -103q0 -61 -43 -104t-102.5 -43t-104.5 45q-43 43 -43 102.5zM676 1468.5q0 59.5 43 102.5t104 43 t104.5 -43t43.5 -102.5t-43 -102.5q-45 -45 -104.5 -45t-104.5 45q-43 43 -43 102.5z" />
<glyph unicode="&#xe5;" horiz-adv-x="1325" d="M84 309q0 180 125 268.5t379 88.5h186v63q0 129 -61.5 190.5t-188.5 61.5q-106 0 -164 -43q-57 -41 -81 -143h-113v229q90 31 196 51q90 16 216 17q287 0 417 -107q133 -109 133 -332v-532h152v-121h-506v135q-74 -88 -156 -125q-84 -39 -196 -39q-162 0 -250 88t-88 250 zM436 338q0 -104 39 -152q41 -49 117 -49q86 0 133 53q49 55 49 144v213h-133q-100 0 -152 -53q-53 -58 -53 -156zM315 1534q0 117 84 201t201 84t201 -84t84 -201t-84 -201t-201 -84t-201 84t-84 201zM469 1534q0 -55 39 -92q43 -39 92 -39q55 0 92 39q39 43 39 92 q0 53 -39 92t-92 39q-55 0 -92 -39q-39 -43 -39 -92z" />
<glyph unicode="&#xe6;" horiz-adv-x="1996" d="M84 309q0 180 127 268.5t387 88.5h186v63q0 115 -71 182q-70 68 -193 68q-102 0 -159.5 -43t-81.5 -141h-113v229q90 31 196 51q90 16 216 17q139 0 235 -39q100 -41 162 -117q76 76 170 117q90 39 203 39q262 0 403 -154q141 -156 152 -457h-732v-8q0 -205 61.5 -297 t201.5 -92q114 0 184 61q70 59 90 177h168q-43 -182 -170 -267q-125 -84 -358 -84q-135 0 -238 39q-111 43 -182 117q-88 -76 -195 -117q-102 -39 -229 -39q-206 0 -314 86q-106 86 -106 252zM436 324q0 -113 39 -160q40 -49 129 -49q88 0 133 55q47 57 47 160v217h-133 q-111 0 -162 -55q-53 -57 -53 -168zM1171 600h342q0 211 -38.5 295t-133.5 84q-92 0 -131 -82q-39 -80 -39 -279v-18z" />
<glyph unicode="&#xe7;" horiz-adv-x="1245" d="M84 532q0 264 153.5 412t428.5 148q117 0 225 -21q117 -23 229 -63v-295h-112q-16 139 -78 200q-66 66 -178 66q-150 0 -211.5 -100.5t-61.5 -346.5q0 -240 61.5 -344t198.5 -104q109 0 172 63q61 61 78 185h166q-37 -180 -155.5 -270.5t-319.5 -90.5q-283 0 -440 148 q-156 147 -156 413zM401 -219q41 -16 88 -27q39 -8 78 -8q63 0 92 23q31 25 31 69q0 25 -16 62q-14 31 -68 100h127q63 -66 92 -119q29 -51 29 -106q0 -86 -63.5 -131t-186.5 -45q-47 0 -98 6q-35 4 -105 20v156z" />
<glyph unicode="&#xe8;" horiz-adv-x="1302" d="M84 532q0 264 152 412q150 147 419 148q264 0 405.5 -156t149.5 -455h-731v-8q0 -205 61.5 -297t200.5 -92q115 0 187 61q70 59 90 177h166q-43 -182 -170 -267q-125 -84 -359 -84q-274 0 -424 146q-147 145 -147 415zM479 600h342q0 211 -39 295t-133 84q-92 0 -131 -82 q-39 -80 -39 -279v-18zM280 1638h279l258 -376h-164z" />
<glyph unicode="&#xe9;" horiz-adv-x="1302" d="M84 532q0 264 152 412q150 147 419 148q264 0 405.5 -156t149.5 -455h-731v-8q0 -205 61.5 -297t200.5 -92q115 0 187 61q70 59 90 177h166q-43 -182 -170 -267q-125 -84 -359 -84q-274 0 -424 146q-147 145 -147 415zM479 600h342q0 211 -39 295t-133 84q-92 0 -131 -82 q-39 -80 -39 -279v-18zM485 1262l258 376h279l-373 -376h-164z" />
<glyph unicode="&#xea;" horiz-adv-x="1302" d="M84 532q0 264 152 412q150 147 419 148q264 0 405.5 -156t149.5 -455h-731v-8q0 -205 61.5 -297t200.5 -92q115 0 187 61q70 59 90 177h166q-43 -182 -170 -267q-125 -84 -359 -84q-274 0 -424 146q-147 145 -147 415zM479 600h342q0 211 -39 295t-133 84q-92 0 -131 -82 q-39 -80 -39 -279v-18zM274 1262l256 376h242l256 -376h-164l-213 225l-213 -225h-164z" />
<glyph unicode="&#xeb;" horiz-adv-x="1302" d="M84 532q0 264 152 412q150 147 419 148q264 0 405.5 -156t149.5 -455h-731v-8q0 -205 61.5 -297t200.5 -92q115 0 187 61q70 59 90 177h166q-43 -182 -170 -267q-125 -84 -359 -84q-274 0 -424 146q-147 145 -147 415zM479 600h342q0 211 -39 295t-133 84q-92 0 -131 -82 q-39 -80 -39 -279v-18zM280 1468.5q0 59.5 43 102.5t105 43q59 0 102 -43t43 -103q0 -61 -43 -104t-102.5 -43t-104.5 45q-43 43 -43 102.5zM727 1468.5q0 59.5 43 102.5t104 43t104.5 -43t43.5 -102.5t-43 -102.5q-45 -45 -104.5 -45t-104.5 45q-43 43 -43 102.5z" />
<glyph unicode="&#xec;" horiz-adv-x="776" d="M575 121h152v-121h-657v121h151v821h-151v121h505v-942zM18 1638h279l258 -376h-164z" />
<glyph unicode="&#xed;" horiz-adv-x="776" d="M575 121h152v-121h-657v121h151v821h-151v121h505v-942zM223 1262l258 376h279l-373 -376h-164z" />
<glyph unicode="&#xee;" horiz-adv-x="776" d="M575 121h152v-121h-657v121h151v821h-151v121h505v-942zM12 1262l256 376h242l256 -376h-164l-213 225l-213 -225h-164z" />
<glyph unicode="&#xef;" horiz-adv-x="776" d="M575 121h152v-121h-657v121h151v821h-151v121h505v-942zM18 1468.5q0 59.5 43 102.5t105 43q59 0 102 -43t43 -103q0 -61 -43 -104t-102.5 -43t-104.5 45q-43 43 -43 102.5zM465 1468.5q0 59.5 43 102.5t104 43t104.5 -43t43.5 -102.5t-43 -102.5q-45 -45 -104.5 -45 t-104.5 45q-43 43 -43 102.5z" />
<glyph unicode="&#xf0;" horiz-adv-x="1363" d="M84 508q0 230 160 381q162 152 403 151q41 0 84 -6q47 -6 88 -18q-23 70 -53 119q-33 51 -80 106l-319 -149l-50 100l279 131q-59 41 -129 70q-84 35 -176 53l28 110q150 -18 256 -53q117 -37 209 -92l330 154l47 -103l-266 -125q190 -154 289 -350q100 -201 100 -430 q0 -274 -160 -430q-158 -156 -440 -156q-279 0 -438 146q-162 147 -162 391zM479 508q0 -231 47 -330q45 -94 158 -94t158 94q45 92 45 330q0 108 -13 203q-12 94 -36 180q-51 20 -84 28.5t-70 8.5q-111 0 -158 -97q-47 -98 -47 -323z" />
<glyph unicode="&#xf1;" horiz-adv-x="1488" d="M70 0v121h151v821h-151v121h505v-150q66 96 146 137.5t207 41.5q178 0 270 -104.5t92 -311.5v-555h152v-121h-635v121h129v565q0 135 -35 188q-33 51 -119 52q-111 0 -157 -78q-49 -80 -50 -250v-477h130v-121h-635zM369 1309v16q0 143 53 221q51 76 155 76q35 0 72 -12 q35 -12 82 -43l72 -47l2 -2q45 -29 80 -29q41 0 65 35q25 33 25 96h110v-16q0 -143 -53 -222q-51 -76 -155 -75q-35 0 -72 12q-35 12 -82 43l-72 47h-2q-45 31 -80 31q-41 0 -65 -35q-25 -33 -25 -96h-110z" />
<glyph unicode="&#xf2;" horiz-adv-x="1363" d="M84 532q0 264 159.5 412t440.5 148t440.5 -147.5t159.5 -412.5q0 -261 -160 -411q-158 -150 -440.5 -150t-439.5 150q-160 150 -160 411zM479 532q0 -256 45 -352t160 -96q111 0 158 96q45 92 45 352q0 258 -45 351q-47 96 -158 96q-113 0 -160 -96q-45 -93 -45 -351z M313 1638h279l258 -376h-164z" />
<glyph unicode="&#xf3;" horiz-adv-x="1363" d="M84 532q0 264 159.5 412t440.5 148t440.5 -147.5t159.5 -412.5q0 -261 -160 -411q-158 -150 -440.5 -150t-439.5 150q-160 150 -160 411zM479 532q0 -256 45 -352t160 -96q111 0 158 96q45 92 45 352q0 258 -45 351q-47 96 -158 96q-113 0 -160 -96q-45 -93 -45 -351z M518 1262l258 376h279l-373 -376h-164z" />
<glyph unicode="&#xf4;" horiz-adv-x="1363" d="M84 532q0 264 159.5 412t440.5 148t440.5 -147.5t159.5 -412.5q0 -261 -160 -411q-158 -150 -440.5 -150t-439.5 150q-160 150 -160 411zM479 532q0 -256 45 -352t160 -96q111 0 158 96q45 92 45 352q0 258 -45 351q-47 96 -158 96q-113 0 -160 -96q-45 -93 -45 -351z M307 1262l256 376h242l256 -376h-164l-213 225l-213 -225h-164z" />
<glyph unicode="&#xf5;" horiz-adv-x="1363" d="M84 532q0 264 159.5 412t440.5 148t440.5 -147.5t159.5 -412.5q0 -261 -160 -411q-158 -150 -440.5 -150t-439.5 150q-160 150 -160 411zM479 532q0 -256 45 -352t160 -96q111 0 158 96q45 92 45 352q0 258 -45 351q-47 96 -158 96q-113 0 -160 -96q-45 -93 -45 -351z M326 1309v16q0 143 53 221q51 76 155 76q35 0 72 -12q35 -12 82 -43l72 -47l2 -2q45 -29 80 -29q41 0 65 35q25 33 25 96h110v-16q0 -143 -53 -222q-51 -76 -155 -75q-35 0 -72 12q-35 12 -82 43l-72 47h-2q-45 31 -80 31q-41 0 -65 -35q-25 -33 -25 -96h-110z" />
<glyph unicode="&#xf6;" horiz-adv-x="1363" d="M84 532q0 264 159.5 412t440.5 148t440.5 -147.5t159.5 -412.5q0 -261 -160 -411q-158 -150 -440.5 -150t-439.5 150q-160 150 -160 411zM479 532q0 -256 45 -352t160 -96q111 0 158 96q45 92 45 352q0 258 -45 351q-47 96 -158 96q-113 0 -160 -96q-45 -93 -45 -351z M313 1468.5q0 59.5 43 102.5t105 43q59 0 102 -43t43 -103q0 -61 -43 -104t-102.5 -43t-104.5 45q-43 43 -43 102.5zM760 1468.5q0 59.5 43 102.5t104 43t104.5 -43t43.5 -102.5t-43 -102.5q-45 -45 -104.5 -45t-104.5 45q-43 43 -43 102.5z" />
<glyph unicode="&#xf7;" horiz-adv-x="1714" d="M217 528v228h1282v-228h-1282zM709 272q0 61 45 107q43 43 104 43q63 0 106.5 -43t43.5 -107q0 -61 -43 -104q-45 -45 -107 -45q-59 0 -104 45t-45 104zM709 1012q0 59 45 104t104 45q61 0 107 -45q43 -43 43 -104q0 -63 -43 -106.5t-107 -43.5q-61 0 -104 43 q-45 46 -45 107z" />
<glyph unicode="&#xf8;" horiz-adv-x="1363" d="M51 -16l164 163q-63 72 -98 172q-33 92 -33 213q0 264 159.5 412t440.5 148q115 0 211 -25q95 -25 166 -74l168 168l86 -86l-164 -162q68 -74 100 -168q33 -92 33 -213q0 -261 -160 -411q-158 -150 -440 -150q-113 0 -205 24.5t-172 74.5l-172 -172zM481 416l387 385 q-20 96 -61 135q-46 43 -123 43q-109 0 -156 -96q-47 -98 -47 -330v-137zM500 262q16 -90 61 -133q49 -45 123 -45q111 0 156 94q45 92 45 330v141z" />
<glyph unicode="&#xf9;" horiz-adv-x="1488" d="M47 942v121h506v-621q0 -201 33 -252q35 -53 121 -53q111 0 157 78q49 80 49 252v475h-129v121h484v-942h151v-121h-506v150q-66 -96 -145.5 -137.5t-206.5 -41.5q-178 0 -270 104.5t-92 311.5v555h-152zM336 1638h279l258 -376h-164z" />
<glyph unicode="&#xfa;" horiz-adv-x="1488" d="M47 942v121h506v-621q0 -201 33 -252q35 -53 121 -53q111 0 157 78q49 80 49 252v475h-129v121h484v-942h151v-121h-506v150q-66 -96 -145.5 -137.5t-206.5 -41.5q-178 0 -270 104.5t-92 311.5v555h-152zM541 1262l258 376h279l-373 -376h-164z" />
<glyph unicode="&#xfb;" horiz-adv-x="1488" d="M47 942v121h506v-621q0 -201 33 -252q35 -53 121 -53q111 0 157 78q49 80 49 252v475h-129v121h484v-942h151v-121h-506v150q-66 -96 -145.5 -137.5t-206.5 -41.5q-178 0 -270 104.5t-92 311.5v555h-152zM330 1262l256 376h242l256 -376h-164l-213 225l-213 -225h-164z " />
<glyph unicode="&#xfc;" horiz-adv-x="1488" d="M47 942v121h506v-621q0 -201 33 -252q35 -53 121 -53q111 0 157 78q49 80 49 252v475h-129v121h484v-942h151v-121h-506v150q-66 -96 -145.5 -137.5t-206.5 -41.5q-178 0 -270 104.5t-92 311.5v555h-152zM336 1468.5q0 59.5 43 102.5t105 43q59 0 102 -43t43 -103 q0 -61 -43 -104t-102.5 -43t-104.5 45q-43 43 -43 102.5zM783 1468.5q0 59.5 43 102.5t104 43t104.5 -43t43.5 -102.5t-43 -102.5q-45 -45 -104.5 -45t-104.5 45q-43 43 -43 102.5z" />
<glyph unicode="&#xfd;" horiz-adv-x="1189" d="M-27 942v121h613v-121h-127l270 -629l252 629h-141v121h399v-121h-129l-471 -1182q-49 -117 -116.5 -166t-182.5 -49q-57 0 -109 11q-68 14 -131 32v222h113q4 -78 37 -115t100.5 -37t104.5 35q40 37 80 135l16 37l-463 1077h-115zM430 1262l258 376h279l-373 -376h-164z " />
<glyph unicode="&#xfe;" horiz-adv-x="1431" d="M47 -305h152v1741h-152v120h506v-628q47 84 121 123q78 41 188 41q227 0 357 -150q131 -154 131 -410q0 -258 -131 -411q-129 -150 -357 -150q-111 0 -188 41q-74 39 -121 123v-440h164v-121h-670v121zM553 479q0 -184 47 -268t154 -84q111 0 153 88q45 94 45 317 q0 225 -45 316q-43 88 -153 88q-109 0 -154 -82q-47 -84 -47 -270v-105z" />
<glyph unicode="&#xff;" horiz-adv-x="1189" d="M-27 942v121h613v-121h-127l270 -629l252 629h-141v121h399v-121h-129l-471 -1182q-49 -117 -116.5 -166t-182.5 -49q-57 0 -109 11q-68 14 -131 32v222h113q4 -78 37 -115t100.5 -37t104.5 35q40 37 80 135l16 37l-463 1077h-115zM225 1468.5q0 59.5 43 102.5t105 43 q59 0 102 -43t43 -103q0 -61 -43 -104t-102.5 -43t-104.5 45q-43 43 -43 102.5zM672 1468.5q0 59.5 43 102.5t104 43t104.5 -43t43.5 -102.5t-43 -102.5q-45 -45 -104.5 -45t-104.5 45q-43 43 -43 102.5z" />
<glyph unicode="&#x131;" horiz-adv-x="776" d="M575 121h152v-121h-657v121h151v821h-151v121h505v-942z" />
<glyph unicode="&#x152;" horiz-adv-x="2416" d="M86 748q0 223 84 385q86 166 242 251q104 61 233 84q135 25 346 25h1303v-352h-137v215h-605v-479h367v190h137v-516h-137v190h-367v-604h623v215h137v-352h-1321q-197 0 -342 27q-139 25 -237 82q-156 86 -242 251q-84 163 -84 388zM506 747.5q0 -313.5 133 -471.5 q131 -156 399 -155h127v1251h-127q-264 0 -399 -158q-133 -153 -133 -466.5z" />
<glyph unicode="&#x153;" horiz-adv-x="2103" d="M84 532q0 264 159.5 412t440.5 148q131 0 227 -39q106 -43 174 -117q76 82 168.5 119t210.5 37q260 0 402 -156q139 -156 149 -455h-731v-8q0 -207 62 -299q59 -90 198 -90q115 0 187 61q70 59 90 177h166q-39 -174 -164 -262.5t-336 -88.5q-135 0 -232 39 q-104 43 -170 117q-72 -78 -176 -117t-241 -39q-268 0 -426 151.5t-158 409.5zM479 532q0 -256 45 -352t160 -96q111 0 158 96q45 92 45 352q0 258 -45 351q-47 96 -158 96q-113 0 -160 -96q-45 -93 -45 -351zM1284 600h340q0 211 -39 295t-133 84q-90 0 -129 -82 q-39 -80 -39 -279v-18z" />
<glyph unicode="&#x178;" horiz-adv-x="1460" d="M-18 1372v121h716v-121h-166l336 -569l334 569h-149v121h428v-121h-127l-414 -702v-549h201v-121h-789v121h201v497l-444 754h-127zM360 1776q0 61 43 104t105 43q59 0 102 -43t43 -104q0 -59 -43 -102.5t-102 -43.5q-61 0 -104.5 43.5t-43.5 102.5zM807 1776 q0 61 43 104t104 43t104.5 -43t43.5 -104q0 -59 -43 -102.5t-105 -43.5q-61 0 -104 43.5t-43 102.5z" />
<glyph unicode="&#x2c6;" d="M135 1262l256 376h242l256 -376h-164l-213 225l-213 -225h-164z" />
<glyph unicode="&#x2da;" d="M227 1534q0 117 84 201t201 84t201 -84t84 -201t-84 -201t-201 -84t-201 84t-84 201zM381 1534q0 -55 39 -92q43 -39 92 -39q55 0 92 39q39 43 39 92q0 53 -39 92t-92 39q-55 0 -92 -39q-39 -43 -39 -92z" />
<glyph unicode="&#x2dc;" d="M154 1309v16q0 143 53 221q51 76 155 76q35 0 72 -12q35 -12 82 -43l72 -47l2 -2q45 -29 80 -29q41 0 65 35q25 33 25 96h110v-16q0 -143 -53 -222q-51 -76 -155 -75q-35 0 -72 12q-35 12 -82 43l-72 47h-2q-45 31 -80 31q-41 0 -65 -35q-25 -33 -25 -96h-110z" />
<glyph unicode="&#x2000;" horiz-adv-x="960" />
<glyph unicode="&#x2001;" horiz-adv-x="1921" />
<glyph unicode="&#x2002;" horiz-adv-x="960" />
<glyph unicode="&#x2003;" horiz-adv-x="1921" />
<glyph unicode="&#x2004;" horiz-adv-x="638" />
<glyph unicode="&#x2005;" horiz-adv-x="479" />
<glyph unicode="&#x2006;" horiz-adv-x="319" />
<glyph unicode="&#x2007;" horiz-adv-x="319" />
<glyph unicode="&#x2008;" horiz-adv-x="239" />
<glyph unicode="&#x2009;" horiz-adv-x="382" />
<glyph unicode="&#x200a;" horiz-adv-x="104" />
<glyph unicode="&#x2010;" horiz-adv-x="849" d="M111 414v270h628v-270h-628z" />
<glyph unicode="&#x2011;" horiz-adv-x="849" d="M111 414v270h628v-270h-628z" />
<glyph unicode="&#x2012;" horiz-adv-x="849" d="M111 414v270h628v-270h-628z" />
<glyph unicode="&#x2013;" d="M0 424v240h1024v-240h-1024z" />
<glyph unicode="&#x2014;" horiz-adv-x="2048" d="M0 424v240h2048v-240h-2048z" />
<glyph unicode="&#x2018;" horiz-adv-x="712" d="M141 934q10 207 92 348q84 141 256 238l105 -136q-98 -70 -139 -161q-45 -100 -45 -234v-55h-269z" />
<glyph unicode="&#x2019;" horiz-adv-x="712" d="M98 1042q98 70 140 160q43 96 43 236v55h270q-8 -207 -92 -348q-80 -137 -256 -238z" />
<glyph unicode="&#x201a;" horiz-adv-x="712" d="M61 -131q98 70 140 162q43 96 43 233v55h270q-10 -207 -92 -348q-84 -141 -256 -237z" />
<glyph unicode="&#x201c;" horiz-adv-x="1177" d="M141 934q10 207 92 348q84 141 256 238l105 -136q-98 -70 -139 -161q-45 -100 -45 -234v-55h-269zM604 934q10 213 92 348q84 137 258 238l105 -136q-100 -72 -141 -161q-43 -95 -44 -234v-55h-270z" />
<glyph unicode="&#x201d;" horiz-adv-x="1177" d="M98 1042q98 70 140 160q43 96 43 236v55h270q-8 -207 -92 -348q-80 -137 -256 -238zM563 1042q98 70 139 160q43 96 43 236v55h271q-8 -207 -92 -348q-80 -137 -256 -238z" />
<glyph unicode="&#x201e;" horiz-adv-x="1177" d="M61 -131q98 70 140 162q43 96 43 233v55h270q-10 -207 -92 -348q-84 -141 -256 -237zM524 -131q98 70 140 162q45 100 45 233v55h270q-10 -207 -92 -348q-84 -141 -256 -237z" />
<glyph unicode="&#x2022;" horiz-adv-x="1308" d="M295 762q0 78 27 139q31 70 77 115q49 49 117 78q61 27 139 26q76 0 138 -26q68 -29 116.5 -78t77.5 -117q27 -61 27 -137q0 -78 -27 -139q-29 -68 -78 -117t-116 -78q-61 -27 -139.5 -27t-139.5 27q-63 27 -115 78q-51 53 -77 117q-27 61 -27 139z" />
<glyph unicode="&#x2026;" horiz-adv-x="2048" d="M166 162q0 80 55 135t135 55t135.5 -55t55.5 -135t-55.5 -135.5t-135.5 -55.5t-135 55.5t-55 135.5zM834 162q0 78 57 135q55 55 133 55t133 -55q57 -57 57 -135t-57 -135q-55 -55 -133 -55.5t-133 55.5q-57 57 -57 135zM1501 162q0 80 55.5 135t135.5 55t135 -55 t55 -135t-55 -135.5t-135 -55.5t-135.5 55.5t-55.5 135.5z" />
<glyph unicode="&#x202f;" horiz-adv-x="382" />
<glyph unicode="&#x2039;" horiz-adv-x="817" d="M158 516v168l469 385v-147l-240 -322l240 -321v-148z" />
<glyph unicode="&#x203a;" horiz-adv-x="817" d="M193 131v148l239 321l-239 322v147l469 -385v-168z" />
<glyph unicode="&#x205f;" horiz-adv-x="479" />
<glyph unicode="&#x20ac;" horiz-adv-x="1423" d="M-8 530l53 119h121v23q-4 70 -4 73q0 6 4 80v17h-174l53 119h137q53 268 219 413.5t422 145.5q111 0 224 -31q119 -33 253 -98v-367h-118q-39 195 -113 287t-188 92q-129 0 -203 -109q-78 -113 -98 -333h471l-54 -119h-424q-4 -57 -4 -68v-45v-4q0 -4 1 -11t1 -16 q0 -10 1 -26.5t1 -22.5h338l-53 -119h-276q23 -223 94 -331q74 -111 207 -111q111 0 184 86q72 84 100 252h162q-37 -221 -168 -340q-127 -115 -338 -115q-256 0 -421.5 145.5t-219.5 413.5h-190z" />
<glyph unicode="&#x2122;" horiz-adv-x="2048" d="M238 1313v180h565v-180h-76v98h-131v-416h86v-80h-324v80h86v416h-131v-98h-75zM877 915v80h84v416h-84v82h266l166 -293l166 293h245v-82h-86v-416h86v-80h-323v80h86v359l-162 -285h-113l-161 285v-359h86v-80h-256z" />
<glyph unicode="&#x2215;" horiz-adv-x="339" d="M553 1520h170l-934 -1549h-170z" />
<glyph unicode="&#xe000;" horiz-adv-x="1065" d="M0 1065h1065v-1065h-1065v1065z" />
<glyph unicode="&#xfb01;" horiz-adv-x="1488" d="M63 942v121h158v76q0 207 141 311q143 106 418 106q96 0 205 -12q111 -12 225 -37v-239h-112q-12 86 -71.5 131t-164.5 45q-145 0 -217 -72q-70 -70 -70 -223v-86h715v-942h152v-121h-635v121h129v821h-361v-821h130v-121h-635v121h151v821h-158z" />
<glyph unicode="&#xfb02;" horiz-adv-x="1488" d="M63 942v121h158v76q0 215 146 315q150 102 452 102h467v-1435h152v-121h-635v121h129v1323h-88q-141 0 -205 -69.5t-64 -225.5v-86h242v-121h-242v-821h130v-121h-635v121h151v821h-158z" />
<glyph unicode="&#xfb03;" horiz-adv-x="2539" d="M1831 0v121h151v821h-151v121h505v-942h152v-121h-657zM1949 1364q0 82 55.5 137t137.5 55q80 0 135 -55t55 -137q0 -80 -55 -135t-135 -55q-82 0 -137.5 55t-55.5 135zM944 942v121h158v133q0 176 113 268q114 92 332 92q78 0 165 -10q78 -8 160 -28v-228h-112 q-10 82 -45 117q-37 37 -107 37q-80 0 -117 -58q-35 -55 -35 -186v-137h267v-121h-267v-821h205v-121h-710v121h151v821h-158zM63 942v121h158v133q0 176 113 268q114 92 332 92q78 0 165 -10q78 -8 160 -28v-228h-112q-10 82 -45 117q-37 37 -107 37q-80 0 -117 -58 q-35 -55 -35 -186v-137h267v-121h-267v-821h205v-121h-710v121h151v821h-158z" />
<glyph unicode="&#xfb04;" horiz-adv-x="2539" d="M1831 0v121h151v1315h-151v120h505v-1435h152v-121h-657zM944 942v121h158v133q0 176 113 268q114 92 332 92q78 0 165 -10q78 -8 160 -28v-228h-112q-10 82 -45 117q-37 37 -107 37q-80 0 -117 -58q-35 -55 -35 -186v-137h267v-121h-267v-821h205v-121h-710v121h151v821 h-158zM63 942v121h158v133q0 176 113 268q114 92 332 92q78 0 165 -10q78 -8 160 -28v-228h-112q-10 82 -45 117q-37 37 -107 37q-80 0 -117 -58q-35 -55 -35 -186v-137h267v-121h-267v-821h205v-121h-710v121h151v821h-158z" />
<glyph d="M141 1403q0 61 43 104t105 43q59 0 102 -43t43 -104q0 -59 -43 -102.5t-102 -43.5q-61 0 -104.5 43.5t-43.5 102.5zM588 1403q0 61 43 104t104 43t104.5 -43t43.5 -104q0 -59 -43 -102.5t-105 -43.5q-61 0 -104 43.5t-43 102.5z" />
<glyph d="M528 1526h279l-297 -264h-164z" />
<glyph d="M154 1262v12q0 123 55 190q53 66 153 66q63 0 142 -39q9 -3 12 -6l72 -33q39 -16 47 -18q25 -4 35 -4q41 0 65.5 24.5t24.5 69.5v4h110v-15q0 -123 -53 -188t-155 -65q-31 0 -68 10q-41 12 -86 35l-57 28q-39 18 -52 21q-25 6 -45 6q-41 0 -65.5 -24.5t-24.5 -69.5v-4 h-110z" />
<glyph d="M496 1526l182 -264h-164l-297 264h279z" />
<glyph d="M358 1526h308l223 -264h-164l-213 161l-213 -161h-164z" />
<glyph horiz-adv-x="894" d="M805 684h-518v94h125v121h-363v88l379 533h252v-527h147v-94h-147v-121h125v-94zM412 993v334l-240 -334h240z" />
</font>
</defs>
</svg>
