<?xml version="1.0" standalone="no"?>
<!DOCTYPE svg PUBLIC "-//W3C//DTD SVG 1.1//EN" "http://www.w3.org/Graphics/SVG/1.1/DTD/svg11.dtd" >
<svg xmlns="http://www.w3.org/2000/svg">
<metadata>
This is a custom SVG webfont generated by Font Squirrel.
Copyright   : Copyright c 2003 by Bitstream Inc All Rights Reserved
Foundry     : Bitstream Inc
Foundry URL : httpwwwbitstreamcom
</metadata>
<defs>
<font id="webfonts8dy15s7" horiz-adv-x="1302" >
<font-face units-per-em="2048" ascent="1556" descent="-492" />
<missing-glyph horiz-adv-x="649" />
<glyph unicode=" "  horiz-adv-x="649" />
<glyph unicode="&#x09;" horiz-adv-x="649" />
<glyph unicode="&#xa0;" horiz-adv-x="649" />
<glyph unicode="!" horiz-adv-x="821" d="M279 104q0 51 38 95q37 39 95 39q55 0 94 -39t39 -94.5t-39 -94.5t-94 -39q-57 0 -95 39q-38 43 -38 94zM283 1493h258l-68 -821v-252h-123v252z" />
<glyph unicode="&#x22;" horiz-adv-x="940" d="M201 938v555h159v-555h-159zM582 938v555h159v-555h-159z" />
<glyph unicode="#" horiz-adv-x="1714" d="M158 414v153h348l82 334h-316v154h355l104 415h170l-102 -415h282l103 415h172l-105 -415h308v-154h-347l-82 -334h314v-153h-352l-103 -414h-172l105 414h-283l-104 -414h-170l102 414h-309zM676 567h285l81 334h-282z" />
<glyph unicode="$" d="M174 922q0 160 111 258q109 96 305 108v268h100v-268q109 -10 195 -33q88 -25 182 -65v-262h-109q-12 113 -81 182q-68 68 -187 78v-453q246 -68 344.5 -153.5t98.5 -231.5q0 -166 -115 -266q-115 -98 -328 -115v-270h-100v270q-98 4 -199 27q-94 23 -215 76v276h109 q2 -135 79.5 -206.5t225.5 -73.5v485q-231 66 -324 147q-92 84 -92 222zM373 987q0 -80 53 -133q51 -51 164 -86v420q-100 -6 -160 -60q-57 -51 -57 -141zM690 68q113 8 172 65q59 55 60 150q0 82 -60 145q-58 61 -172 92v-452z" />
<glyph unicode="%" horiz-adv-x="1945" d="M113 1114q0 182 94 295q92 111 249.5 111t252 -108.5t94.5 -297t-94 -299.5q-92 -109 -252 -108.5t-252 111t-92 296.5zM272 1112.5q0 -149.5 50 -231.5q49 -84 137 -84q86 0 135 84q49 82 49 231.5t-49 230.5q-49 84 -135 84q-88 0 -137 -84q-50 -81 -50 -230.5z M430 -29l934 1549h152l-934 -1549h-152zM1143 377q0 184 94 297q92 111 252 110.5t252 -111t92 -296.5q0 -184 -94 -297q-90 -109 -250 -109q-162 0 -252 109q-94 113 -94 297zM1303 377q0 -143 51 -230q49 -84 135 -84t135 84q49 82 49 229.5t-49 233.5q-47 84 -135 84 t-137 -84q-49 -82 -49 -233z" />
<glyph unicode="&#x26;" horiz-adv-x="1822" d="M147 461q0 133 76 247.5t232 217.5q-47 57 -74 121q-25 61 -25 127q0 162 115 254t311 92q76 0 156 -17q106 -23 205 -51v-258h-113q-16 111 -78 164q-63 55 -174 55q-100 0 -168 -57q-63 -55 -63 -146q0 -59 35 -123q31 -53 141 -172l516 -544q70 82 109 172 q39 92 49 198h-180v107h473v-107h-172q-20 -137 -66 -243q-49 -111 -133 -209l172 -183h235v-106h-401l-137 145q-102 -88 -223 -131q-120 -43 -258 -43q-258 0 -408 131q-152 134 -152 359zM350 483q0 -164 115 -278q113 -113 287 -113q109 0 192 35q92 39 162 104 l-582 613q-88 -78 -131 -168.5t-43 -192.5z" />
<glyph unicode="'" horiz-adv-x="561" d="M201 938v555h159v-555h-159z" />
<glyph unicode="(" horiz-adv-x="798" d="M162 618.5q0 352.5 125 592t366 345.5v-98q-154 -109 -221 -299q-68 -193 -67 -541q0 -347 67 -540q68 -190 221 -299v-98q-242 106 -366.5 345.5t-124.5 592z" />
<glyph unicode=")" horiz-adv-x="798" d="M145 -221q154 109 222 299q68 194 67 540q0 348 -67 541q-68 190 -222 299v98q242 -106 367 -345.5t125 -592t-125 -592t-367 -345.5v98z" />
<glyph unicode="*" horiz-adv-x="1024" d="M33 870l391 183l-391 184l76 119l348 -217l-13 381h136l-13 -381l348 217l76 -119l-391 -182l391 -185l-76 -118l-348 217l13 -381h-136l13 381l-348 -217z" />
<glyph unicode="+" horiz-adv-x="1714" d="M217 561v162h561v561h160v-561h561v-162h-561v-561h-160v561h-561z" />
<glyph unicode="," horiz-adv-x="649" d="M74 -199q96 68 139 162q43 92 43 227v37h197q-10 -176 -80 -293q-76 -127 -219 -213z" />
<glyph unicode="-" horiz-adv-x="690" d="M90 471v156h512v-156h-512z" />
<glyph unicode="." horiz-adv-x="649" d="M193 104q0 51 38 95q37 39 95 39q55 0 94 -39t39 -94.5t-39 -94.5t-94 -39q-57 0 -95 39q-38 43 -38 94z" />
<glyph unicode="/" horiz-adv-x="688" d="M0 -190l530 1683h160l-530 -1683h-160z" />
<glyph unicode="0" d="M135 745.5q0 364.5 137 571.5q135 203 379 203t379 -203q137 -207 137 -571.5t-137 -571.5q-135 -203 -378.5 -203t-379.5 203q-137 207 -137 571.5zM346 745q0 -342 76 -507q76 -168 229.5 -168t229.5 168q76 166 75.5 507.5t-75.5 507.5q-76 168 -229.5 168 t-229.5 -168q-76 -166 -76 -508z" />
<glyph unicode="1" d="M250 1153v131l364 236h138v-1414h260v-106h-721v106h260v1242z" />
<glyph unicode="2" d="M139 0v109l453 452q154 154 215 275q63 125 63 264q0 150 -79.5 235.5t-215.5 85.5q-143 0 -221 -71q-76 -70 -92 -213h-112v266q104 55 215 88q100 29 213 29q236 0 368 -113q135 -114 135 -307q0 -219 -307 -525l-35 -34l-377 -377h623v184h117v-348h-963z" />
<glyph unicode="3" d="M156 72v290h112q10 -145 96.5 -218.5t245.5 -73.5q154 0 242 88t88 243q0 178 -90 267q-94 90 -268 90h-95v102h50q178 0 262 72q88 76 88 219q0 129 -72 201q-70 70 -207 69.5t-209 -63.5q-76 -66 -88 -191h-112v263q133 49 225 67q113 23 201 23q221 0 342 -95 q123 -94 123 -262q0 -139 -84 -225q-90 -92 -242 -123q182 -25 284.5 -133.5t102.5 -278.5q0 -211 -141.5 -321.5t-403.5 -110.5q-119 0 -229 25q-115 25 -221 76z" />
<glyph unicode="4" d="M63 399v109l654 1012h198v-1014h285v-107h-285v-293h240v-106h-680v106h240v293h-652zM205 506h510v794z" />
<glyph unicode="5" d="M174 72v290h113q10 -145 90 -217q86 -76 229 -75q158 0 244 104q84 102 84 299q0 195 -84 297q-86 104 -244 104q-86 0 -157.5 -32.5t-122.5 -98.5h-86v750h790v-164h-684v-428q49 35 121 53q70 18 156 19q244 0 383 -133t139 -367q0 -237 -141 -369q-143 -133 -398 -133 q-102 0 -211 25q-112 25 -221 76z" />
<glyph unicode="6" d="M137 698q0 389 162 607q160 215 453 215q86 0 166 -15q92 -16 178 -45v-246h-113q-12 100 -77.5 153.5t-174.5 53.5q-194 0 -289 -147q-94 -147 -98 -453q72 78 154 113q86 37 194 37q225 0 352 -133q129 -135 130 -367q0 -229 -140 -365q-137 -135 -372 -135 q-254 0 -389.5 188.5t-135.5 538.5zM377 483q0 -201 75.5 -307t217 -106t217.5 104q76 102 76 297t-76 297q-76 104 -217 104q-143 0 -217 -100q-76 -105 -76 -289z" />
<glyph unicode="7" d="M172 1145v348h983v-102l-584 -1391h-149l557 1329h-690v-184h-117z" />
<glyph unicode="8" d="M137 408q0 162 94 262q98 104 267 125q-152 29 -232 114.5t-80 223.5q0 180 123 284q121 102 342 103q219 0 340 -103q125 -106 125 -284q0 -137 -80 -223.5t-231 -114.5q166 -20 264 -125q96 -102 96 -262q0 -209 -133 -324q-131 -113 -381 -113t-381 113 q-133 115 -133 324zM348 407.5q0 -161.5 80 -249.5t223.5 -88t223 88t79.5 249.5t-79.5 249.5t-223 88t-223.5 -88t-80 -249.5zM389 1132.5q0 -137.5 69.5 -213t192.5 -75.5q125 0 193 76q70 80 69.5 213t-69.5 213q-68 76 -193 75q-123 0 -192.5 -75.5t-69.5 -213z" />
<glyph unicode="9" d="M129 1020q0 229 139 364q137 135 373 136q254 0 389 -188.5t135 -538.5q0 -389 -161 -607q-160 -215 -453 -215q-86 0 -166 15q-92 16 -178 45v248h112q12 -96 78 -154q66 -55 174 -55q194 0 289 147q96 147 98 453q-72 -78 -153 -113q-86 -37 -197 -37q-223 0 -350 133 q-129 136 -129 367zM340 1020q0 -195 76 -297q76 -104 217 -104.5t217 100t76 289.5q0 201 -76 307t-217 106t-217 -104q-76 -102 -76 -297z" />
<glyph unicode=":" horiz-adv-x="688" d="M213 104q0 55 39 94.5t94 39.5t94 -39t39 -95q0 -51 -39 -94q-37 -39 -94 -39t-94 39q-39 43 -39 94zM213 756q0 55 39 94t94 39q57 0 94 -37q39 -39 39 -96q0 -55 -39 -94t-94 -39t-94 39t-39 94z" />
<glyph unicode=";" horiz-adv-x="688" d="M74 -199q96 68 139 162q43 92 43 227v37h197q-10 -176 -80 -293q-76 -127 -219 -213zM217 756q0 55 39 94t94.5 39t94 -39t38.5 -94.5t-38.5 -94t-94 -38.5t-94.5 39t-39 94z" />
<glyph unicode="&#x3c;" horiz-adv-x="1714" d="M217 559v166l1282 465v-170l-1038 -379l1038 -377v-170z" />
<glyph unicode="=" horiz-adv-x="1714" d="M217 358v160h1282v-160h-1282zM217 766v160h1282v-160h-1282z" />
<glyph unicode="&#x3e;" horiz-adv-x="1714" d="M217 94v170l1038 377l-1038 379v170l1282 -465v-166z" />
<glyph unicode="?" horiz-adv-x="1097" d="M139 1167v260q121 51 201 70q100 23 180 23q223 0 350 -107q129 -108 129 -289q0 -188 -110.5 -305t-333.5 -168v-254h-123v328q178 43 266 143q90 102 90 258q0 135 -73.5 215t-198.5 80q-111 0 -186 -65q-72 -63 -94 -189h-97zM360 104q0 55 39 94.5t94.5 39.5 t94.5 -39t39 -94.5t-39 -94.5t-94.5 -39t-94.5 39t-39 94z" />
<glyph unicode="@" horiz-adv-x="2048" d="M135 543q0 186 68 348q70 166 194 289q127 127 299 194.5t367 67.5q219 0 391 -82q175 -83 295 -240q72 -92 115 -213q39 -111 39 -239q0 -268 -162 -424q-160 -154 -447 -158v162q-55 -78 -133 -121q-76 -41 -166 -41q-178 0 -284 125q-109 127 -109 325.5t109 325.5 q106 125 284 125q90 0 166 -41q78 -43 133 -121v142h156v-772q170 37 264 161.5t94 313.5q0 111 -34 211q-35 102 -101 182q-109 135 -258 203q-156 72 -332 71q-89 0 -178 -18q-84 -16 -174 -59q-203 -92 -313 -281q-113 -190 -113 -436q0 -166 49 -307q47 -135 146 -244 q109 -121 258 -182q152 -61 323 -62q125 0 242 39q115 39 207 113l53 -70q-109 -94 -246 -139q-141 -47 -299 -47q-184 0 -350 67q-168 68 -291 189q-127 125 -196 290q-66 158 -66 353zM780 536.5q0 -159.5 68 -245.5q70 -88 190 -88q115 0 185 78q72 82 71 204v105 q0 125 -71.5 202.5t-186.5 77.5q-119 0 -188 -88q-68 -86 -68 -245.5z" />
<glyph unicode="A" horiz-adv-x="1478" d="M-12 0v106h131l532 1387h168l533 -1387h147v-106h-543v106h166l-125 328h-628l-125 -328h164v-106h-420zM410 541h548l-274 710z" />
<glyph unicode="B" horiz-adv-x="1503" d="M113 0v106h190v1280h-190v107h737q227 0 340 -92q115 -92 115 -277q0 -133 -80 -213q-78 -78 -232 -96q193 -25 289 -121q98 -98 98 -262q0 -223 -141 -327.5t-436 -104.5h-690zM506 106h299q178 0 262 78t84 248t-82 246q-84 78 -264 78h-299v-650zM506 862h254 q164 0 239.5 63.5t75.5 198.5q0 137 -76 199q-80 63 -239 63h-254v-524z" />
<glyph unicode="C" horiz-adv-x="1566" d="M115 745q0 348 200.5 561.5t530.5 213.5q121 0 260 -31q119 -27 297 -98v-344h-113q-37 186 -149.5 276t-311.5 90q-240 0 -362 -170q-123 -169 -123 -497.5t123 -497.5q123 -170 362 -170q166 0 275 80q106 78 156 237h184q-66 -211 -221.5 -317.5t-393.5 -106.5 q-145 0 -272 49q-121 47 -221 148q-109 109 -166 254q-55 141 -55 323z" />
<glyph unicode="D" horiz-adv-x="1640" d="M113 0v106h190v1280h-190v107h594q387 0 602 -196.5t215 -549t-215 -548.5q-217 -199 -602 -199h-594zM506 106h186q291 0 447 166q156 164 155 476q0 309 -155 475q-154 164 -447 163h-186v-1280z" />
<glyph unicode="E" horiz-adv-x="1492" d="M113 0v106h190v1280h-190v107h1202v-332h-123v209h-686v-500h489v187h123v-496h-123v187h-489v-625h702v209h123v-332h-1218z" />
<glyph unicode="F" horiz-adv-x="1419" d="M113 0v106h190v1280h-190v107h1222v-332h-123v209h-706v-500h510v187h123v-496h-123v187h-510v-642h239v-106h-632z" />
<glyph unicode="G" horiz-adv-x="1634" d="M115 745.5q0 348.5 204 563.5q203 211 549 211q137 0 265 -29q152 -35 290 -90v-354h-112q-33 186 -145.5 276t-309.5 90q-258 0 -385 -166q-127 -168 -127 -502q0 -330 131 -497q133 -170 385 -170q106 0 215 28q102 27 197 84v385h-281v107h484v-557 q-125 -72 -287 -115q-150 -39 -328 -39q-338 0 -541 211q-204 215 -204 563.5z" />
<glyph unicode="H" horiz-adv-x="1785" d="M113 0v106h190v1280h-190v107h583v-107h-190v-516h774v516h-190v107h583v-107h-190v-1280h190v-106h-583v106h190v642h-774v-642h190v-106h-583z" />
<glyph unicode="I" horiz-adv-x="808" d="M113 0v106h190v1280h-190v107h583v-107h-190v-1280h190v-106h-583z" />
<glyph unicode="J" horiz-adv-x="819" d="M-172 -123h115q2 -96 47 -147q43 -49 131 -49q119 0 166 75.5t47 292.5v1337h-232v107h625v-107h-190v-1345q0 -246 -98.5 -356.5t-319.5 -110.5q-78 0 -144 16q-78 20 -147 52v235z" />
<glyph unicode="K" horiz-adv-x="1529" d="M113 0v106h190v1280h-190v107h583v-107h-190v-565l643 565h-162v107h496v-107h-168l-641 -563l717 -717h170v-106h-347l-708 709v-603h190v-106h-583z" />
<glyph unicode="L" horiz-adv-x="1359" d="M113 0v106h190v1280h-190v107h583v-107h-190v-1263h682v250h123v-373h-1198z" />
<glyph unicode="M" horiz-adv-x="2095" d="M102 1386v107h435l524 -1063l524 1063h408v-107h-199v-1280h191v-106h-584v106h190v1154l-512 -1041h-141l-512 1041v-1154h190v-106h-503v106h190v1280h-201z" />
<glyph unicode="N" horiz-adv-x="1792" d="M100 0v106h201v1280h-201v107h383l895 -1178v1071h-200v107h524v-107h-201v-1415h-121l-956 1258v-1123h201v-106h-525z" />
<glyph unicode="O" horiz-adv-x="1677" d="M115 745q0 182 55 324q57 145 166 254q98 98 223 147.5t281 49.5q326 0 526 -213q199 -211 199 -562q0 -180 -55.5 -323t-166.5 -254q-98 -98 -225 -147.5t-278 -49.5q-150 0 -279 49q-125 47 -225 148q-109 109 -166 254q-55 141 -55 323zM344 745.5 q0 -331.5 125 -499.5t370.5 -168t370.5 168t125 499.5t-125 499.5t-370.5 168t-370.5 -168t-125 -499.5z" />
<glyph unicode="P" horiz-adv-x="1376" d="M113 0v106h190v1280h-190v107h706q223 0 354.5 -112.5t131.5 -307.5q0 -193 -131 -305q-133 -115 -355 -115h-313v-547h231v-106h-624zM506 760h264q151 0 227 80q78 82 78 233.5t-78 233.5q-77 80 -227 79h-264v-626z" />
<glyph unicode="Q" horiz-adv-x="1677" d="M115 745q0 182 55 324q57 145 166 254q98 98 223 147.5t281 49.5q326 0 526 -213q199 -211 199 -562q0 -297 -150 -497q-150 -203 -414 -260q55 -68 132 -99q82 -33 186 -32h31v-185q-170 10 -289 82t-197 217q-344 0 -546.5 211t-202.5 563zM344 745.5 q0 -331.5 125 -499.5t370.5 -168t370.5 168t125 499.5t-125 499.5t-370.5 168t-370.5 -168t-125 -499.5z" />
<glyph unicode="R" horiz-adv-x="1540" d="M113 0v106h190v1280h-190v107h757q215 0 336 -104q119 -104 119 -295q0 -152 -86 -242q-86 -89 -258 -111q70 -18 121 -65q53 -49 90 -127l217 -443h182v-106h-352l-233 475q-68 138 -123 178q-57 41 -154 41h-223v-588h211v-106h-604zM506 801h295q152 0 223.5 71.5 t71.5 221t-72 221t-223 71.5h-295v-585z" />
<glyph unicode="S" horiz-adv-x="1402" d="M172 1120q0 190 135 295t379 105q98 0 227 -23q115 -20 265 -65v-318h-113q-18 162 -104 229q-88 70 -271 70q-158 0 -241 -65q-82 -63 -82 -187q0 -106 61 -168q57 -57 264 -121l185 -55q207 -63 290 -155q86 -96 86 -254q0 -215 -139 -326t-414 -111q-123 0 -252 24.5 t-258 76.5v340h115q6 -169 98 -252q90 -82 285 -82q178 0 273 72q92 72 92 204q0 108 -56 166q-53 55 -239 113l-197 59q-217 66 -301 162q-88 100 -88 266z" />
<glyph unicode="T" horiz-adv-x="1363" d="M20 1141v352h1326v-352h-123v233h-439v-1268h191v-106h-584v106h191v1268h-439v-233h-123z" />
<glyph unicode="U" horiz-adv-x="1724" d="M96 1386v107h584v-107h-191v-772q0 -286 93 -399q92 -113 323 -113q229 0 322 113q94 117 94 399v772h-191v107h504v-107h-190v-792q0 -342 -131 -481q-133 -141 -445 -142q-315 0 -448 142q-133 143 -133 481v792h-191z" />
<glyph unicode="V" horiz-adv-x="1478" d="M-20 1386v107h544v-107h-166l441 -1146l440 1146h-168v107h438v-107h-145l-533 -1386h-172l-530 1386h-149z" />
<glyph unicode="W" horiz-adv-x="2103" d="M10 1386v107h545v-107h-186l311 -1103l340 1210h162l346 -1223l313 1116h-172v107h430v-107h-147l-391 -1386h-164l-342 1214l-342 -1214h-164l-391 1386h-148z" />
<glyph unicode="X" horiz-adv-x="1456" d="M12 0v106h172l430 627l-436 653h-160v107h592v-107h-176l320 -481l329 481h-192v107h489v-107h-168l-395 -575l471 -705h160v-106h-592v106h178l-356 533l-365 -533h193v-106h-494z" />
<glyph unicode="Y" horiz-adv-x="1351" d="M-23 1386v107h555v-107h-174l373 -604l373 604h-168v107h434v-107h-141l-449 -724v-556h191v-106h-584v106h191v537l-461 743h-140z" />
<glyph unicode="Z" horiz-adv-x="1421" d="M92 0v72l930 1298h-772v-223h-123v346h1180v-72l-930 -1298h844v209h122v-332h-1251z" />
<glyph unicode="[" horiz-adv-x="798" d="M176 -270v1826h465v-106h-274v-1614h274v-106h-465z" />
<glyph unicode="\" horiz-adv-x="688" d="M0 1493h160l530 -1683h-160z" />
<glyph unicode="]" horiz-adv-x="798" d="M158 -164h274v1614h-274v106h465v-1826h-465v106z" />
<glyph unicode="^" horiz-adv-x="1714" d="M217 936l543 557h196l543 -557h-153l-488 381l-487 -381h-154z" />
<glyph unicode="_" horiz-adv-x="1024" d="M0 -403h1024v-80h-1024v80z" />
<glyph unicode="`" horiz-adv-x="1024" d="M170 1636h197l260 -376h-117z" />
<glyph unicode="a" horiz-adv-x="1220" d="M102 319q0 164 119 256q117 90 336 91h258v73q0 119 -73.5 186.5t-206.5 67.5q-106 0 -174 -51t-82 -147h-95v215q92 39 187 61q84 20 176 21q221 0 336 -109q117 -111 116 -319v-558h164v-106h-348v115q-63 -76 -141 -109q-82 -35 -187 -35q-178 0 -280 95 q-105 93 -105 253zM307 319q0 -111 68 -176q70 -66 184.5 -65.5t185.5 72.5q70 70 70 184v225h-237q-133 0 -203 -59q-68 -58 -68 -181z" />
<glyph unicode="b" horiz-adv-x="1310" d="M59 0v106h177v1344h-177v106h361v-659q55 102 137 147q84 47 207 48q197 0 319 -154q125 -156 125 -406q0 -246 -125 -405q-123 -156 -319 -156q-123 0 -207 47q-82 45 -137 148v-166h-361zM420 479q0 -193 73.5 -293t213 -100t213 112.5t73.5 334t-73 331.5 q-76 113 -213 113q-139 0 -213 -100q-74 -102 -74 -293v-105z" />
<glyph unicode="c" horiz-adv-x="1146" d="M102 532.5q0 253.5 142 407.5q139 152 372 152q109 0 201 -23q106 -27 201 -72v-272h-107q-20 139 -92 205q-70 63 -201 63q-147 0 -225 -116q-76 -115 -76 -345q0 -231 76 -346q78 -117 225 -116q120 0 191 61q72 61 96 188h148q-41 -172 -149.5 -260t-287.5 -88 q-231 0 -372.5 154t-141.5 407.5z" />
<glyph unicode="d" horiz-adv-x="1310" d="M102 532q0 252 123 406t322 154q123 0 207 -48q82 -45 137 -147v553h-174v106h358v-1450h176v-106h-360v166q-55 -102 -137 -148q-84 -47 -207 -47q-195 0 -320 155.5t-125 405.5zM317 532q0 -223 72 -333q74 -113 215 -113q139 0 213 100.5t74 292.5v105q0 190 -74 293 q-74 100 -213 100t-215 -113q-72 -107 -72 -332z" />
<glyph unicode="e" horiz-adv-x="1210" d="M102 532q0 250 140 406q139 154 364 154q242 0 371 -148q127 -145 133 -432h-793v-8q0 -213 80 -323.5t240 -110.5q123 0 199 63q78 66 108 189h148q-43 -174 -162 -262.5t-312 -88.5q-233 0 -374.5 153.5t-141.5 407.5zM317 618h576q-6 188 -78 281q-74 94 -209 94 q-127 0 -200 -96q-73 -95 -89 -279z" />
<glyph unicode="f" horiz-adv-x="757" d="M74 0v106h176v850h-176v107h176v133q0 176 92 268t272 92q66 0 134 -12q70 -12 133 -37v-202h-97q0 76 -43 114q-41 39 -120 39q-100 0 -146 -57q-41 -53 -41 -201v-137h297v-107h-297v-850h236v-106h-596z" />
<glyph unicode="g" horiz-adv-x="1310" d="M102 532q0 252 123 406t322 154q123 0 207 -48q82 -45 137 -147v166h360v-107h-176v-933q0 -225 -127 -353q-125 -125 -358 -125q-106 0 -201 19q-86 16 -184 57v223h96q18 -104 84 -151q68 -49 193 -49q160 0 237 92q76 90 76 287v143q-55 -102 -137 -148 q-84 -47 -207 -47q-195 0 -320 155.5t-125 405.5zM317 532q0 -223 72 -333q74 -113 215 -113q139 0 213 100.5t74 292.5v105q0 190 -74 293q-74 100 -213 100t-215 -113q-72 -107 -72 -332z" />
<glyph unicode="h" horiz-adv-x="1318" d="M74 1450v106h360v-682q53 109 133 162q84 55 189 56q178 0 260 -100.5t82 -315.5v-570h164v-106h-508v106h159v512q0 195 -47 266.5t-170 71.5q-125 0 -194 -94q-68 -92 -68 -270v-486h160v-106h-510v106h166v1344h-176z" />
<glyph unicode="i" horiz-adv-x="653" d="M74 0v106h176v850h-176v107h360v-957h174v-106h-534zM199 1393q0 45 34.5 79.5t79.5 34.5t80 -34q33 -33 33 -80t-33 -80t-80 -33t-80 33q-34 35 -34 80z" />
<glyph unicode="j" horiz-adv-x="634" d="M-197 -170h95q6 -95 49 -141q43 -45 125 -45q92 0 135 61.5t43 190.5v1060h-174v107h358v-1167q0 -166 -98 -258.5t-268 -92.5q-68 0 -138 17q-66 16 -127 49v219zM205 1393q0 47 33 80q35 35 81 34q45 0 80 -34q33 -33 33 -80t-32.5 -80t-80.5 -33q-49 0 -81.5 33 t-32.5 80z" />
<glyph unicode="k" horiz-adv-x="1239" d="M59 1450v106h361v-1013l448 413h-153v107h481v-107h-182l-316 -292l404 -558h153v-106h-524v106h152l-318 437l-145 -135v-302h166v-106h-516v106h166v1344h-177z" />
<glyph unicode="l" horiz-adv-x="653" d="M59 0v106h177v1344h-177v106h361v-1450h174v-106h-535z" />
<glyph unicode="m" horiz-adv-x="1941" d="M74 958v105h360v-189q53 109 129 162q80 55 180 56q125 0 207 -62q84 -61 111 -174q53 119 135 176q84 59 193 60q168 0 249.5 -102.5t81.5 -313.5v-570h166v-106h-510v106h160v549q0 166 -47 232q-51 70 -160 69q-123 0 -188 -94q-63 -90 -64 -270v-486h160v-106h-504 v106h160v556q0 162 -47 227q-49 68 -160 67q-123 0 -188 -94q-63 -90 -64 -270v-486h160v-106h-510v106h166v852h-176z" />
<glyph unicode="n" horiz-adv-x="1318" d="M74 956v107h360v-189q53 109 133 162q84 55 189 56q178 0 260 -100.5t82 -315.5v-570h164v-106h-508v106h159v512q0 193 -49 266.5t-168 73.5q-125 0 -194 -94q-68 -92 -68 -272v-486h160v-106h-510v106h166v850h-176z" />
<glyph unicode="o" horiz-adv-x="1232" d="M102 532q0 254 140 406q141 154 374 154q231 0 372.5 -154t141.5 -406q0 -254 -141 -407.5t-372.5 -153.5t-373 153.5t-141.5 407.5zM317 532q0 -231 76 -346q78 -117 223.5 -116.5t223.5 116.5q76 115 75 346q0 229 -75 345q-78 117 -223.5 116.5t-223.5 -116.5 q-76 -116 -76 -345z" />
<glyph unicode="p" horiz-adv-x="1310" d="M59 -319h177v1275h-177v107h361v-166q55 102 137 147q84 47 207 48q197 0 319 -154q125 -156 125 -406q0 -246 -125 -405q-123 -156 -319 -156q-123 0 -207 47q-82 45 -137 148v-485h174v-107h-535v107zM420 479q0 -193 73.5 -293t213 -100t213 112.5t73.5 334t-73 331.5 q-76 113 -213 113q-139 0 -213 -100q-74 -102 -74 -293v-105z" />
<glyph unicode="q" horiz-adv-x="1310" d="M102 532q0 252 123 406t322 154q123 0 207 -48q82 -45 137 -147v166h360v-107h-176v-1275h176v-107h-534v107h174v485q-55 -102 -137 -148q-84 -47 -207 -47q-195 0 -320 155.5t-125 405.5zM317 532q0 -223 72 -333q74 -113 215 -113q139 0 213 100.5t74 292.5v105 q0 190 -74 293q-74 100 -213 100t-215 -113q-72 -107 -72 -332z" />
<glyph unicode="r" horiz-adv-x="978" d="M74 958v105h360v-189q57 115 139 164q88 53 207 54q45 0 94 -7q29 -4 105 -20v-266h-107q-6 82 -43 119q-39 39 -114 38q-135 0 -209 -94q-72 -92 -72 -270v-486h213v-106h-563v106h166v852h-176z" />
<glyph unicode="s" horiz-adv-x="1050" d="M115 59v248h106q3 -120 74 -178q72 -59 209 -59q123 0 188.5 47t65.5 135q0 70 -47 113q-45 43 -201 92l-133 45q-133 41 -199 110q-61 63 -61 168q0 147 106.5 229.5t296.5 82.5q80 0 176 -23q102 -25 193 -63v-232h-107q-2 102 -71 162q-66 57 -185 57q-117 0 -176 -41 t-59 -123q0 -70 45 -108.5t180 -81.5l146 -45q150 -45 217 -116.5t67 -182.5q0 -154 -115 -238q-117 -86 -319 -86q-98 0 -201 23q-94 20 -196 65z" />
<glyph unicode="t" horiz-adv-x="821" d="M59 956v107h162v330h185v-330h346v-107h-346v-675q0 -133 26.5 -172t95.5 -39q71 0 105 43q31 41 35 137h139q-8 -143 -80 -211q-71 -68 -215 -68q-162 0 -225 70q-66 72 -66 240v675h-162z" />
<glyph unicode="u" horiz-adv-x="1318" d="M55 956v107h351v-619q0 -195 47 -266.5t170 -71.5q127 0 194.5 94.5t67.5 272.5v483h-160v107h344v-957h174v-106h-358v188q-51 -106 -131 -161.5t-189 -55.5q-178 0 -260 101q-84 102 -84 315v569h-166z" />
<glyph unicode="v" horiz-adv-x="1155" d="M-6 956v107h489v-107h-170l299 -731l299 731h-159v107h399v-107h-119l-391 -956h-135l-391 956h-121z" />
<glyph unicode="w" horiz-adv-x="1751" d="M33 956v107h481v-107h-172l238 -723l274 830h129l272 -830l240 723h-154v107h385v-107h-118l-316 -956h-153l-262 795l-263 -795h-147l-315 956h-119z" />
<glyph unicode="x" horiz-adv-x="1153" d="M25 956v107h475v-107h-127l223 -307l223 307h-143v107h409v-107h-141l-285 -393l332 -457h139v-106h-491v106h135l-231 318l-232 -318h138v-106h-404v106h141l293 404l-323 446h-131z" />
<glyph unicode="y" horiz-adv-x="1155" d="M-6 956v107h489v-107h-170l299 -731l299 731h-159v107h399v-107h-119l-487 -1196q-49 -125 -111 -170q-59 -45 -172 -45q-53 0 -96 9q-72 12 -100 22v203h94q6 -66 35 -98q27 -29 88 -29q53 0 88 31q35 33 71 122l70 177l-397 974h-121z" />
<glyph unicode="z" horiz-adv-x="1077" d="M82 0v86l666 870h-527v-184h-106v291h870v-86l-666 -871h578v193h107v-299h-922z" />
<glyph unicode="{" d="M256 559v105h61q139 0 194.5 59t55.5 207v258q0 223 84 295q86 74 334 73h62v-104h-68q-141 0 -184 -43t-43 -186v-287q0 -158 -49.5 -225.5t-180.5 -98.5q131 -33 180.5 -100.5t49.5 -224.5v-287q0 -141 43 -184q45 -45 184 -45h68v-105h-62q-248 0 -334 74 q-84 72 -84 295v258q0 151 -55 209q-55 57 -195 57h-61z" />
<glyph unicode="|" horiz-adv-x="688" d="M264 -483v2048h162v-2048h-162z" />
<glyph unicode="}" d="M256 -229h70q139 0 182 43t43 186v287q0 158 49 225.5t180 99.5q-131 31 -180 98.5t-49 225.5v287q0 143 -43 186t-182 43h-70v104h63q249 0 332 -73q84 -74 84 -295v-258q0 -152 53 -207q55 -59 197 -59h62v-105h-62q-141 0 -197 -57q-53 -55 -53 -209v-258 q0 -221 -84 -295q-83 -74 -332 -74h-63v105z" />
<glyph unicode="~" horiz-adv-x="1714" d="M217 477v152q106 90 189 127q92 41 184 41t270 -66l10 -4q4 -2 31 -12q141 -57 242 -58q90 0 180 37q88 37 176 113v-148q-98 -86 -190 -131q-84 -41 -183 -41q-92 0 -270 66l-10 4q-10 2 -33 12q-145 57 -242 58q-92 0 -178 -37q-90 -39 -176 -113z" />
<glyph unicode="&#xa0;" />
<glyph unicode="&#xa1;" horiz-adv-x="821" d="M279 1389q0 51 38 94q37 39 95 39q55 0 94 -39t39 -94.5t-39 -94.5t-94 -39q-57 0 -95 39q-38 44 -38 95zM283 0l67 821v252h123v-252l68 -821h-258z" />
<glyph unicode="&#xa2;" d="M154 532.5q0 243.5 127 391t348 166.5v266h100v-266q94 -10 176 -31q86 -23 164 -62v-272h-106q-18 125 -76 188q-59 66 -158 78v-919q90 12 148 75q58 65 79 172h148q-35 -156 -129 -241q-95 -86 -246 -105v-270h-100v270q-219 18 -348 168q-127 148 -127 391.5z M371 532q0 -215 65 -329q66 -117 193 -131v919q-127 -14 -193 -131q-65 -115 -65 -328z" />
<glyph unicode="&#xa3;" d="M137 0v106h193v594h-193v107h193v295q0 203 114 311q113 106 336 107q86 0 166 -13q84 -12 156 -37v-245h-105q-8 94 -67 145q-57 51 -152 51q-127 0 -188 -78q-59 -74 -60 -241v-295h412v-107h-412v-579h478v227h116v-348h-987z" />
<glyph unicode="&#xa4;" d="M104 186l205 207q-40 61 -61 123q-20 59 -21 125q0 74 20.5 129t65.5 117l-207 207l95 94l207 -207q57 45 116.5 65.5t128.5 20.5q68 0 127 -20q66 -23 121 -62l209 207l94 -94l-209 -209q43 -61 63.5 -120.5t20.5 -127.5q0 -74 -20 -129q-23 -59 -66 -115l207 -207 l-96 -94l-207 205q-57 -45 -115 -65q-55 -20 -129 -21q-68 0 -127 21q-61 22 -123 61l-204 -205zM385 643q0 -115 78 -192.5t190 -77.5q115 0 191 78q78 82 78 192.5t-78 188t-190.5 77.5t-190.5 -77.5t-78 -188.5z" />
<glyph unicode="&#xa5;" d="M-16 1386v107h553v-107h-175l343 -604l339 604h-167v107h432v-107h-142l-284 -497h272v-105h-332l-71 -122v-84h403v-105h-403v-367h190v-106h-582v106h191v367h-404v105h404v65l-82 141h-322v105h263l-287 497h-139z" />
<glyph unicode="&#xa6;" horiz-adv-x="688" d="M264 -350v758h162v-758h-162zM264 674v758h162v-758h-162z" />
<glyph unicode="&#xa7;" horiz-adv-x="1024" d="M92 719q0 90 60 160q57 68 167 98q-84 49 -122.5 112.5t-38.5 141.5q0 129 100 209q102 80 266 80q82 0 154 -15q90 -18 151 -41v-202h-92q-4 72 -55 114q-49 41 -139 41q-100 0 -157.5 -49t-57.5 -131q0 -94 245 -233q14 -8 23.5 -14.5t15.5 -8.5q195 -109 258 -184 q61 -74 62 -174q0 -92 -53 -158q-51 -63 -166 -107q78 -47 114.5 -110.5t36.5 -153.5q0 -131 -102 -211q-98 -78 -275 -78q-90 0 -170 13q-68 10 -157 43v209h92q4 -84 55 -121q57 -41 162 -41q102 0 163.5 49t61.5 133q0 114 -227 240q-12 6 -20.5 11t-12.5 7 q-213 121 -278 197q-64 72 -64 174zM256 754q0 -131 362 -334l33 -19q57 35 88 86q29 45 29 105q0 74 -70 141q-71 68 -319 203q-70 -47 -96.5 -88t-26.5 -94z" />
<glyph unicode="&#xa8;" horiz-adv-x="1024" d="M201 1452q0 47 34.5 82t82 35t82 -35t34.5 -82q0 -51 -32.5 -84t-84 -33t-84 33t-32.5 84zM590 1452q0 47 34.5 82t82 35t82 -35t34.5 -82q0 -51 -32.5 -84t-84 -33t-84 33t-32.5 84z" />
<glyph unicode="&#xa9;" horiz-adv-x="2048" d="M283 741q0 152 55 285t162 240q109 109 241 164t283 55t283 -55q133 -55 241 -164q106 -106 161.5 -239.5t55.5 -285.5q0 -154 -55 -282q-59 -135 -162 -240q-109 -109 -241 -164t-283 -55t-283 55q-133 55 -241 164q-102 104 -162 240q-55 128 -55 282zM385 741 q0 -127 47 -243q43 -104 141 -207q96 -96 207 -141q117 -47 244 -48q129 0 246 48q111 45 207 141q92 94 139 207q47 117 47 243q0 129 -47 246q-47 115 -139 207q-96 96 -207 141q-117 47 -246 47q-127 0 -244 -47q-111 -45 -207 -141t-141 -207q-47 -117 -47 -246z M616 741q0 203 113 322q115 121 297 121q80 0 158 -19q84 -20 164 -57v-213h-84q-18 111 -74 160q-57 51 -162 51q-119 0 -180 -92q-59 -88 -60 -273q0 -186 60 -272q61 -90 178 -90q96 0 154 47q55 47 77 147h119q-28 -132 -116 -202t-234 -70q-188 0 -299 121 q-111 119 -111 319z" />
<glyph unicode="&#xaa;" horiz-adv-x="972" d="M125 979q0 115 94 178.5t266 63.5h205v45q0 86 -57 131q-59 47 -164 47q-84 0 -137 -35q-49 -31 -66 -104h-76v157q74 27 150 43q66 14 137 15q178 0 268 -76q92 -76 93 -225v-379h80v-84h-228v80q-45 -47 -110 -74q-61 -25 -150 -25q-139 0 -223 66q-82 63 -82 176z M166 535v104h698v-104h-698zM289 987q0 -78 51 -123q49 -43 147 -43q92 0 147.5 49.5t55.5 126.5v148h-188q-106 0 -159.5 -39t-53.5 -119z" />
<glyph unicode="&#xab;" horiz-adv-x="1251" d="M158 559v82l469 418v-115l-297 -344l297 -344v-115zM592 559v82l469 418v-115l-297 -344l297 -344v-115z" />
<glyph unicode="&#xac;" horiz-adv-x="1714" d="M217 700v162h1282v-575h-160v413h-1122z" />
<glyph unicode="&#xad;" horiz-adv-x="690" d="M90 471v156h512v-156h-512z" />
<glyph unicode="&#xae;" horiz-adv-x="2048" d="M283 741q0 152 55 285t162 240q109 109 241 164t283 55t283 -55q133 -55 241 -164q106 -106 161.5 -239.5t55.5 -285.5q0 -154 -55 -282q-59 -135 -162 -240q-109 -109 -241 -164t-283 -55t-283 55q-133 55 -241 164q-102 104 -162 240q-55 128 -55 282zM385 741 q0 -127 47 -243q43 -104 141 -207q96 -96 207 -141q117 -47 244 -48q129 0 246 48q111 45 207 141q92 94 139 207q47 117 47 243q0 129 -47 246q-47 115 -139 207q-96 96 -207 141q-117 47 -246 47q-127 0 -244 -47q-111 -45 -207 -141t-141 -207q-47 -117 -47 -246z M662 352v68h83v672h-83v67h415q127 0 192.5 -55t65.5 -166q0 -83 -49 -129q-49 -47 -145 -55q41 -14 71 -39q25 -20 50 -66l116 -229h76v-68h-190l-131 254q-33 68 -66 94q-29 23 -80 23h-92v-303h84v-68h-317zM895 791h125q80 0 125 38q41 35 41 113t-41 113 q-43 37 -125 37h-125v-301z" />
<glyph unicode="&#xaf;" horiz-adv-x="1024" d="M213 1378v148h598v-148h-598z" />
<glyph unicode="&#xb0;" horiz-adv-x="1024" d="M195 1200q0 135 92 227.5t225 92.5q65 0 123 -25q61 -27 102 -70q51 -51 70 -102q23 -61 22 -123q0 -131 -92 -223t-227 -92t-225 90t-90 225zM332 1200q0 -76 51 -127t129 -51q76 0 127 51q53 53 53 127q0 76 -53 129t-127 53t-127 -53t-53 -129z" />
<glyph unicode="&#xb1;" horiz-adv-x="1714" d="M217 0v160h1282v-160h-1282zM217 731v162h561v391h160v-391h561v-162h-561v-391h-160v391h-561z" />
<glyph unicode="&#xb2;" horiz-adv-x="819" d="M90 668v75l285 254q88 78 123 138q37 61 37 127q0 88 -48 135q-49 49 -133 49q-80 0 -125 -37q-47 -37 -59 -113h-70v158q65 31 136 49q63 16 139 17q135 0 223 -66q86 -66 86 -170q0 -121 -195 -297l-18 -16l-238 -215h385v108h74v-196h-602z" />
<glyph unicode="&#xb3;" horiz-adv-x="819" d="M100 709v170h70q6 -74 53 -113t141.5 -39t145.5 43t51 127q0 96 -51 141q-53 47 -152 47h-53v74h27q98 0 147 37t49 111q0 66 -41 102q-40 37 -116 37q-80 0 -125 -33t-51 -96h-70v151q90 31 139 39q68 12 127 13q141 0 213 -54q74 -55 74 -153q0 -72 -53 -121 q-52 -49 -148 -68q117 -14 180 -75q59 -57 60 -160q0 -111 -88 -174q-86 -61 -250 -62q-76 0 -141 15q-81 16 -138 41z" />
<glyph unicode="&#xb4;" horiz-adv-x="1024" d="M393 1262l258 376h199l-340 -376h-117z" />
<glyph unicode="&#xb5;" horiz-adv-x="1329" d="M59 -319h177v1275h-166v107h350v-619q0 -195 49 -266.5t168 -71.5q127 0 194.5 94.5t67.5 272.5v483h-160v107h344v-959h174v-104h-358v188q-51 -106 -125 -161.5t-164 -55.5q-58 0 -104 19q-49 20 -86 53v-362h174v-107h-535v107z" />
<glyph unicode="&#xb6;" d="M158 1071q0 186 131 305q129 117 344 117h538v-107h-118v-1583h-107v1583h-231v-1583h-107v846q-217 18 -332 127q-118 113 -118 295z" />
<glyph unicode="&#xb7;" horiz-adv-x="649" d="M190 711q0 55 39 94t94.5 39t94.5 -39t39 -94.5t-39 -94t-94 -38.5q-51 0 -95 38q-39 38 -39 95z" />
<glyph unicode="&#xb8;" horiz-adv-x="1024" d="M291 -240q35 -16 80 -26q35 -8 75 -8q57 0 90 26.5t33 71.5q0 27 -22 72q-18 39 -66 104h97q66 -66 96.5 -121t30.5 -104q0 -82 -64 -125q-68 -45 -174 -45q-43 0 -86 6q-45 6 -90 18v131z" />
<glyph unicode="&#xb9;" horiz-adv-x="819" d="M147 1280v94l240 129h102v-751h173v-84h-486v84h172v634z" />
<glyph unicode="&#xba;" horiz-adv-x="962" d="M94 1128.5q0 178.5 106.5 285t280.5 106.5t280.5 -106.5t106.5 -285.5q0 -174 -106 -284q-104 -106 -281 -107q-174 0 -280.5 106.5t-106.5 285zM137 535v104h688v-104h-688zM268 1128.5q0 -157.5 54 -235.5q55 -80 159 -80q108 0 160 80q53 82 53 235q0 156 -55 236 t-158 80q-104 0 -159 -80q-54 -78 -54 -235.5z" />
<glyph unicode="&#xbb;" horiz-adv-x="1251" d="M193 141v115l296 344l-296 344v115l469 -418v-82zM627 141v115l297 344l-297 344v115l469 -418v-82z" />
<glyph unicode="&#xbc;" horiz-adv-x="1984" d="M147 1280v94l240 129h102v-751h173v-84h-486v84h172v634zM1388 1520h150l-942 -1549h-150zM1614 303v407l-308 -407h308zM1902 0h-434v84h146v137h-398v84l400 530h141v-532h164v-82h-164v-137h145v-84z" />
<glyph unicode="&#xbd;" horiz-adv-x="1984" d="M147 1280v94l240 129h102v-751h173v-84h-486v84h172v634zM1388 1520h150l-942 -1549h-150zM1253 0v75l285 254q88 78 123 138q37 61 37 127q0 88 -48 135q-49 49 -133 49q-80 0 -125 -37q-47 -37 -59 -113h-70v158q65 31 136 49q63 16 139 17q135 0 223 -66 q86 -66 86 -170q0 -121 -195 -297l-18 -16l-238 -215h385v108h74v-196h-602z" />
<glyph unicode="&#xbe;" horiz-adv-x="1984" d="M100 709v170h70q6 -74 53 -113t141.5 -39t145.5 43t51 127q0 96 -51 141q-53 47 -152 47h-53v74h27q98 0 147 37t49 111q0 66 -41 102q-40 37 -116 37q-80 0 -125 -33t-51 -96h-70v151q90 31 139 39q68 12 127 13q141 0 213 -54q74 -55 74 -153q0 -72 -53 -121 q-52 -49 -148 -68q117 -14 180 -75q59 -57 60 -160q0 -111 -88 -174q-86 -61 -250 -62q-76 0 -141 15q-81 16 -138 41zM1388 1520h150l-942 -1549h-150zM1614 303v407l-308 -407h308zM1902 0h-434v84h146v137h-398v84l400 530h141v-532h164v-82h-164v-137h145v-84z" />
<glyph unicode="&#xbf;" horiz-adv-x="1097" d="M139 369q0 188 110.5 305t334.5 168v254h123v-328q-178 -43 -267 -143q-90 -102 -90 -258q0 -135 74 -215t199 -80q111 0 186 65q72 63 94 189h96v-260q-121 -51 -200 -70q-100 -23 -181 -23q-223 0 -350 107q-129 108 -129 289zM512 1388.5q0 55.5 39 94.5t94 39 q57 0 94 -39q39 -43 39 -94q0 -55 -39 -94.5t-94 -39.5t-94 39t-39 94.5z" />
<glyph unicode="&#xc0;" horiz-adv-x="1478" d="M-12 0v106h131l532 1387h168l533 -1387h147v-106h-543v106h166l-125 328h-628l-125 -328h164v-106h-420zM410 541h548l-274 710zM669 1899l183 -264h-117l-262 264h196z" />
<glyph unicode="&#xc1;" horiz-adv-x="1478" d="M-12 0v106h131l532 1387h168l533 -1387h147v-106h-543v106h166l-125 328h-628l-125 -328h164v-106h-420zM410 541h548l-274 710zM802 1899h197l-262 -264h-117z" />
<glyph unicode="&#xc2;" horiz-adv-x="1478" d="M-12 0v106h131l532 1387h168l533 -1387h147v-106h-543v106h166l-125 328h-628l-125 -328h164v-106h-420zM410 541h548l-274 710zM651 1899h176l231 -264h-116l-203 161l-203 -161h-116z" />
<glyph unicode="&#xc3;" horiz-adv-x="1478" d="M-12 0v106h131l532 1387h168l533 -1387h147v-106h-543v106h166l-125 328h-628l-125 -328h164v-106h-420zM410 541h548l-274 710zM727 1714l-49 29q-31 18 -41 21q-20 6 -37 6q-41 0 -66 -29q-27 -29 -28 -74h-97q4 104 54 160q53 59 135 59q33 0 67.5 -10t85.5 -39 l49 -26q27 -14 45 -21q20 -6 39 -6q39 0 64 27q25 29 24 75h97q-4 -106 -54 -161q-51 -57 -145 -58q-70 0 -139 45z" />
<glyph unicode="&#xc4;" horiz-adv-x="1478" d="M-12 0v106h131l532 1387h168l533 -1387h147v-106h-543v106h166l-125 328h-628l-125 -328h164v-106h-420zM410 541h548l-274 710zM544.5 1884q47.5 0 82 -34.5t34.5 -81.5q0 -51 -32.5 -84t-84.5 -33q-49 0 -81 33q-35 35 -35 84q0 47 34.5 81.5t82 34.5zM933.5 1884 q47.5 0 82 -34.5t34.5 -81.5q0 -49 -35 -84q-33 -33 -81 -33q-51 0 -84 32.5t-33 84.5q0 47 34.5 81.5t82 34.5z" />
<glyph unicode="&#xc5;" horiz-adv-x="1478" d="M-12 0v106h131l489 1278q-76 39 -110 99q-37 61 -37 143q0 115 80 195t194.5 80t194.5 -80t80 -195q0 -80 -39 -143q-40 -65 -111 -99l492 -1278h147v-106h-543v106h166l-125 328h-628l-125 -328h164v-106h-420zM410 541h546l-272 710zM584 1626q0 -63 43 -106 q45 -45 108 -45q61 0 106.5 45t45.5 106.5t-45 106.5t-107 45q-66 0 -108.5 -43t-42.5 -109z" />
<glyph unicode="&#xc6;" horiz-adv-x="2048" d="M-35 0v106h131l590 1280h-215v107h1456v-332h-123v209h-688v-500h492v187h123v-496h-123v187h-492v-625h705v209h123v-332h-1219v106h190v328h-538l-152 -328h164v-106h-424zM426 541h489v845h-100z" />
<glyph unicode="&#xc7;" horiz-adv-x="1566" d="M115 745q0 348 200.5 561.5t530.5 213.5q121 0 260 -31q119 -27 297 -98v-344h-113q-37 186 -149.5 276t-311.5 90q-240 0 -362 -170q-123 -169 -123 -497.5t123 -497.5q123 -170 362 -170q166 0 275 80q106 78 156 237h184q-66 -211 -221.5 -317.5t-393.5 -106.5 q-145 0 -272 49q-121 47 -221 148q-109 109 -166 254q-55 141 -55 323zM623 -240q35 -16 80 -26q35 -8 75 -8q57 0 90 26.5t33 71.5q0 27 -22 72q-18 39 -66 104h97q66 -66 96.5 -121t30.5 -104q0 -82 -64 -125q-68 -45 -174 -45q-43 0 -86 6q-45 6 -90 18v131z" />
<glyph unicode="&#xc8;" horiz-adv-x="1492" d="M113 0v106h190v1280h-190v107h1202v-332h-123v209h-686v-500h489v187h123v-496h-123v187h-489v-625h702v209h123v-332h-1218zM678 1899l183 -264h-117l-262 264h196z" />
<glyph unicode="&#xc9;" horiz-adv-x="1492" d="M113 0v106h190v1280h-190v107h1202v-332h-123v209h-686v-500h489v187h123v-496h-123v187h-489v-625h702v209h123v-332h-1218zM811 1899h197l-262 -264h-117z" />
<glyph unicode="&#xca;" horiz-adv-x="1492" d="M113 0v106h190v1280h-190v107h1202v-332h-123v209h-686v-500h489v187h123v-496h-123v187h-489v-625h702v209h123v-332h-1218zM660 1899h176l231 -264h-116l-203 161l-203 -161h-116z" />
<glyph unicode="&#xcb;" horiz-adv-x="1492" d="M113 0v106h190v1280h-190v107h1202v-332h-123v209h-686v-500h489v187h123v-496h-123v187h-489v-625h702v209h123v-332h-1218zM553.5 1884q47.5 0 82 -34.5t34.5 -81.5q0 -51 -32.5 -84t-84.5 -33q-49 0 -81 33q-35 35 -35 84q0 47 34.5 81.5t82 34.5zM942.5 1884 q47.5 0 82 -34.5t34.5 -81.5q0 -49 -35 -84q-33 -33 -81 -33q-51 0 -84 32.5t-33 84.5q0 47 34.5 81.5t82 34.5z" />
<glyph unicode="&#xcc;" horiz-adv-x="808" d="M113 0v106h190v1280h-190v107h583v-107h-190v-1280h190v-106h-583zM336 1899l183 -264h-117l-262 264h196z" />
<glyph unicode="&#xcd;" horiz-adv-x="808" d="M113 0v106h190v1280h-190v107h583v-107h-190v-1280h190v-106h-583zM469 1899h197l-262 -264h-117z" />
<glyph unicode="&#xce;" horiz-adv-x="808" d="M113 0v106h190v1280h-190v107h583v-107h-190v-1280h190v-106h-583zM318 1899h176l231 -264h-116l-203 161l-203 -161h-116z" />
<glyph unicode="&#xcf;" horiz-adv-x="808" d="M113 0v106h190v1280h-190v107h583v-107h-190v-1280h190v-106h-583zM211.5 1884q47.5 0 82 -34.5t34.5 -81.5q0 -51 -32.5 -84t-84.5 -33q-49 0 -81 33q-35 35 -35 84q0 47 34.5 81.5t82 34.5zM600.5 1884q47.5 0 82 -34.5t34.5 -81.5q0 -49 -35 -84q-33 -33 -81 -33 q-51 0 -84 32.5t-33 84.5q0 47 34.5 81.5t82 34.5z" />
<glyph unicode="&#xd0;" horiz-adv-x="1652" d="M113 719v125h200v542h-190v107h594q387 0 602 -196.5t215 -549t-215 -548.5q-217 -199 -602 -199h-594v106h190v613h-200zM514 106h188q289 0 447 166q156 164 156 476q0 313 -156 475q-158 164 -447 163h-188v-542h336v-125h-336v-613z" />
<glyph unicode="&#xd1;" horiz-adv-x="1792" d="M100 0v106h201v1280h-201v107h383l895 -1178v1071h-200v107h524v-107h-201v-1415h-121l-956 1258v-1123h201v-106h-525zM885 1714l-49 29q-31 18 -41 21q-20 6 -37 6q-41 0 -66 -29q-27 -29 -28 -74h-97q4 104 54 160q53 59 135 59q33 0 67.5 -10t85.5 -39l49 -26 q27 -14 45 -21q20 -6 39 -6q39 0 64 27q25 29 24 75h97q-4 -106 -54 -161q-51 -57 -145 -58q-70 0 -139 45z" />
<glyph unicode="&#xd2;" horiz-adv-x="1677" d="M115 745q0 182 55 324q57 145 166 254q98 98 223 147.5t281 49.5q326 0 526 -213q199 -211 199 -562q0 -180 -55.5 -323t-166.5 -254q-98 -98 -225 -147.5t-278 -49.5q-150 0 -279 49q-125 47 -225 148q-109 109 -166 254q-55 141 -55 323zM344 745.5 q0 -331.5 125 -499.5t370.5 -168t370.5 168t125 499.5t-125 499.5t-370.5 168t-370.5 -168t-125 -499.5zM770 1899l183 -264h-117l-262 264h196z" />
<glyph unicode="&#xd3;" horiz-adv-x="1677" d="M115 745q0 182 55 324q57 145 166 254q98 98 223 147.5t281 49.5q326 0 526 -213q199 -211 199 -562q0 -180 -55.5 -323t-166.5 -254q-98 -98 -225 -147.5t-278 -49.5q-150 0 -279 49q-125 47 -225 148q-109 109 -166 254q-55 141 -55 323zM344 745.5 q0 -331.5 125 -499.5t370.5 -168t370.5 168t125 499.5t-125 499.5t-370.5 168t-370.5 -168t-125 -499.5zM903 1899h197l-262 -264h-117z" />
<glyph unicode="&#xd4;" horiz-adv-x="1677" d="M115 745q0 182 55 324q57 145 166 254q98 98 223 147.5t281 49.5q326 0 526 -213q199 -211 199 -562q0 -180 -55.5 -323t-166.5 -254q-98 -98 -225 -147.5t-278 -49.5q-150 0 -279 49q-125 47 -225 148q-109 109 -166 254q-55 141 -55 323zM344 745.5 q0 -331.5 125 -499.5t370.5 -168t370.5 168t125 499.5t-125 499.5t-370.5 168t-370.5 -168t-125 -499.5zM752 1899h176l231 -264h-116l-203 161l-203 -161h-116z" />
<glyph unicode="&#xd5;" horiz-adv-x="1677" d="M115 745q0 182 55 324q57 145 166 254q98 98 223 147.5t281 49.5q326 0 526 -213q199 -211 199 -562q0 -180 -55.5 -323t-166.5 -254q-98 -98 -225 -147.5t-278 -49.5q-150 0 -279 49q-125 47 -225 148q-109 109 -166 254q-55 141 -55 323zM344 745.5 q0 -331.5 125 -499.5t370.5 -168t370.5 168t125 499.5t-125 499.5t-370.5 168t-370.5 -168t-125 -499.5zM828 1714l-49 29q-31 18 -41 21q-20 6 -37 6q-41 0 -66 -29q-27 -29 -28 -74h-97q4 104 54 160q53 59 135 59q33 0 67.5 -10t85.5 -39l49 -26q27 -14 45 -21 q20 -6 39 -6q39 0 64 27q25 29 24 75h97q-4 -106 -54 -161q-51 -57 -145 -58q-70 0 -139 45z" />
<glyph unicode="&#xd6;" horiz-adv-x="1677" d="M115 745q0 182 55 324q57 145 166 254q98 98 223 147.5t281 49.5q326 0 526 -213q199 -211 199 -562q0 -180 -55.5 -323t-166.5 -254q-98 -98 -225 -147.5t-278 -49.5q-150 0 -279 49q-125 47 -225 148q-109 109 -166 254q-55 141 -55 323zM344 745.5 q0 -331.5 125 -499.5t370.5 -168t370.5 168t125 499.5t-125 499.5t-370.5 168t-370.5 -168t-125 -499.5zM645.5 1884q47.5 0 82 -34.5t34.5 -81.5q0 -51 -32.5 -84t-84.5 -33q-49 0 -81 33q-35 35 -35 84q0 47 34.5 81.5t82 34.5zM1034.5 1884q47.5 0 82 -34.5t34.5 -81.5 q0 -49 -35 -84q-33 -33 -81 -33q-51 0 -84 32.5t-33 84.5q0 47 34.5 81.5t82 34.5z" />
<glyph unicode="&#xd7;" horiz-adv-x="1714" d="M283 180l460 461l-460 463l114 113l461 -461l461 461l115 -113l-463 -463l463 -461l-115 -112l-461 460l-461 -460z" />
<glyph unicode="&#xd8;" horiz-adv-x="1677" d="M100 12l187 207q-84 102 -129 236q-43 129 -43 290q0 342 200 560q201 215 525 215q143 0 262 -43q121 -43 215 -125l178 198l80 -71l-184 -203q90 -113 131 -240q43 -131 43 -291q0 -342 -201 -559q-201 -215 -524 -215q-139 0 -260 43q-117 41 -220 129l-182 -200z M344 745q0 -113 16 -215q16 -100 50 -178l804 887q-63 86 -157 131q-92 43 -217 43q-246 0 -371 -168t-125 -500zM463 256q68 -92 158 -133q100 -45 219 -45q246 0 370.5 168t124.5 499q0 111 -16 216q-14 88 -51 180z" />
<glyph unicode="&#xd9;" horiz-adv-x="1724" d="M96 1386v107h584v-107h-191v-772q0 -286 93 -399q92 -113 323 -113q229 0 322 113q94 117 94 399v772h-191v107h504v-107h-190v-792q0 -342 -131 -481q-133 -141 -445 -142q-315 0 -448 142q-133 143 -133 481v792h-191zM833 1899l183 -264h-117l-262 264h196z" />
<glyph unicode="&#xda;" horiz-adv-x="1724" d="M96 1386v107h584v-107h-191v-772q0 -286 93 -399q92 -113 323 -113q229 0 322 113q94 117 94 399v772h-191v107h504v-107h-190v-792q0 -342 -131 -481q-133 -141 -445 -142q-315 0 -448 142q-133 143 -133 481v792h-191zM966 1899h197l-262 -264h-117z" />
<glyph unicode="&#xdb;" horiz-adv-x="1724" d="M96 1386v107h584v-107h-191v-772q0 -286 93 -399q92 -113 323 -113q229 0 322 113q94 117 94 399v772h-191v107h504v-107h-190v-792q0 -342 -131 -481q-133 -141 -445 -142q-315 0 -448 142q-133 143 -133 481v792h-191zM815 1899h176l231 -264h-116l-203 161l-203 -161 h-116z" />
<glyph unicode="&#xdc;" horiz-adv-x="1724" d="M96 1386v107h584v-107h-191v-772q0 -286 93 -399q92 -113 323 -113q229 0 322 113q94 117 94 399v772h-191v107h504v-107h-190v-792q0 -342 -131 -481q-133 -141 -445 -142q-315 0 -448 142q-133 143 -133 481v792h-191zM708.5 1884q47.5 0 82 -34.5t34.5 -81.5 q0 -51 -32.5 -84t-84.5 -33q-49 0 -81 33q-35 35 -35 84q0 47 34.5 81.5t82 34.5zM1097.5 1884q47.5 0 82 -34.5t34.5 -81.5q0 -49 -35 -84q-33 -33 -81 -33q-51 0 -84 32.5t-33 84.5q0 47 34.5 81.5t82 34.5z" />
<glyph unicode="&#xdd;" horiz-adv-x="1351" d="M-23 1386v107h555v-107h-174l373 -604l373 604h-168v107h434v-107h-141l-449 -724v-556h191v-106h-584v106h191v537l-461 743h-140zM739 1899h197l-262 -264h-117z" />
<glyph unicode="&#xde;" horiz-adv-x="1382" d="M113 0v106h190v1280h-190v107h624v-107h-231v-219h313q221 0 355 -114q131 -113 131 -305q0 -195 -131 -308q-133 -115 -355 -114h-313v-220h231v-106h-624zM506 434h264q151 0 227 80q78 82 78 233.5t-78 233.5q-77 80 -227 80h-264v-627z" />
<glyph unicode="&#xdf;" horiz-adv-x="1366" d="M59 0v106h177v1080q0 174 114 272q113 98 324 98q215 0 325.5 -104t122.5 -315h-22q-147 0 -228 -54q-84 -55 -84 -147q0 -51 27 -90q29 -41 100 -86l89 -55q160 -102 215 -185q59 -88 59 -198q0 -156 -115 -252q-117 -98 -301 -99q-88 0 -170 19q-76 16 -162 53v233h109 q2 -100 59.5 -153t157.5 -53q111 0 174.5 61.5t63.5 163.5q0 86 -39 143q-39 55 -158 131l-86 54q-109 68 -149 129q-43 65 -44 147q0 123 84 205q86 82 238 106q-8 119 -78 183q-72 66 -188 65q-131 0 -193 -65q-61 -65 -61 -203v-1190h-361z" />
<glyph unicode="&#xe0;" horiz-adv-x="1220" d="M102 319q0 164 119 256q117 90 336 91h258v73q0 119 -73.5 186.5t-206.5 67.5q-106 0 -174 -51t-82 -147h-95v215q92 39 187 61q84 20 176 21q221 0 336 -109q117 -111 116 -319v-558h164v-106h-348v115q-63 -76 -141 -109q-82 -35 -187 -35q-178 0 -280 95 q-105 93 -105 253zM307 319q0 -111 68 -176q70 -66 184.5 -65.5t185.5 72.5q70 70 70 184v225h-237q-133 0 -203 -59q-68 -58 -68 -181zM227 1636h197l260 -376h-117z" />
<glyph unicode="&#xe1;" horiz-adv-x="1220" d="M102 319q0 164 119 256q117 90 336 91h258v73q0 119 -73.5 186.5t-206.5 67.5q-106 0 -174 -51t-82 -147h-95v215q92 39 187 61q84 20 176 21q221 0 336 -109q117 -111 116 -319v-558h164v-106h-348v115q-63 -76 -141 -109q-82 -35 -187 -35q-178 0 -280 95 q-105 93 -105 253zM307 319q0 -111 68 -176q70 -66 184.5 -65.5t185.5 72.5q70 70 70 184v225h-237q-133 0 -203 -59q-68 -58 -68 -181zM450 1262l258 376h199l-340 -376h-117z" />
<glyph unicode="&#xe2;" horiz-adv-x="1220" d="M102 319q0 164 119 256q117 90 336 91h258v73q0 119 -73.5 186.5t-206.5 67.5q-106 0 -174 -51t-82 -147h-95v215q92 39 187 61q84 20 176 21q221 0 336 -109q117 -111 116 -319v-558h164v-106h-348v115q-63 -76 -141 -109q-82 -35 -187 -35q-178 0 -280 95 q-105 93 -105 253zM307 319q0 -111 68 -176q70 -66 184.5 -65.5t185.5 72.5q70 70 70 184v225h-237q-133 0 -203 -59q-68 -58 -68 -181zM250 1262l235 376h168l235 -376h-116l-203 260l-203 -260h-116z" />
<glyph unicode="&#xe3;" horiz-adv-x="1220" d="M102 319q0 164 119 256q117 90 336 91h258v73q0 119 -73.5 186.5t-206.5 67.5q-106 0 -174 -51t-82 -147h-95v215q92 39 187 61q84 20 176 21q221 0 336 -109q117 -111 116 -319v-558h164v-106h-348v115q-63 -76 -141 -109q-82 -35 -187 -35q-178 0 -280 95 q-105 93 -105 253zM307 319q0 -111 68 -176q70 -66 184.5 -65.5t185.5 72.5q70 70 70 184v225h-237q-133 0 -203 -59q-68 -58 -68 -181zM239 1309q4 137 54 209q51 74 141 73q41 0 69 -14q41 -20 70 -47l57 -55q23 -23 39.5 -31t38.5 -8q43 0 68 41q23 39 26 114h97 q-4 -137 -54 -209q-51 -74 -141 -73q-41 0 -69 14q-41 20 -70 47l-57 55q-23 23 -43.5 31t-34.5 8q-41 0 -66 -39q-23 -37 -28 -116h-97z" />
<glyph unicode="&#xe4;" horiz-adv-x="1220" d="M102 319q0 164 119 256q117 90 336 91h258v73q0 119 -73.5 186.5t-206.5 67.5q-106 0 -174 -51t-82 -147h-95v215q92 39 187 61q84 20 176 21q221 0 336 -109q117 -111 116 -319v-558h164v-106h-348v115q-63 -76 -141 -109q-82 -35 -187 -35q-178 0 -280 95 q-105 93 -105 253zM307 319q0 -111 68 -176q70 -66 184.5 -65.5t185.5 72.5q70 70 70 184v225h-237q-133 0 -203 -59q-68 -58 -68 -181zM258 1452q0 47 34.5 82t82 35t82 -35t34.5 -82q0 -51 -32.5 -84t-84 -33t-84 33t-32.5 84zM647 1452q0 47 34.5 82t82 35t82 -35 t34.5 -82q0 -51 -32.5 -84t-84 -33t-84 33t-32.5 84z" />
<glyph unicode="&#xe5;" horiz-adv-x="1220" d="M102 319q0 164 119 256q117 90 336 91h258v73q0 119 -73.5 186.5t-206.5 67.5q-106 0 -174 -51t-82 -147h-95v215q92 39 187 61q84 20 176 21q221 0 336 -109q117 -111 116 -319v-558h164v-106h-348v115q-63 -76 -141 -109q-82 -35 -187 -35q-178 0 -280 95 q-105 93 -105 253zM307 319q0 -111 68 -176q70 -66 184.5 -65.5t185.5 72.5q70 70 70 184v225h-237q-133 0 -203 -59q-68 -58 -68 -181zM843 1524q0 -115 -79.5 -195t-194.5 -80t-194.5 80t-79.5 194.5t79.5 194.5t194.5 80t194.5 -79.5t79.5 -194.5zM721 1524q0 63 -43 106 q-45 45 -109 45q-66 0 -109 -43t-43 -108.5t43 -108.5t109 -43t109 43t43 109z" />
<glyph unicode="&#xe6;" horiz-adv-x="1923" d="M102 319q0 164 119 256q117 90 336 91h258v73q0 119 -71.5 186.5t-200.5 67.5q-117 0 -183 -49q-66 -51 -81 -149h-95v215q92 39 187 61q84 20 176 21q141 0 237.5 -43t151.5 -134q72 86 170 132q100 45 213 45q242 0 371 -150q131 -152 133 -430h-793v-8 q0 -213 80 -323.5t240 -110.5q123 0 198 63q78 66 109 189h147q-43 -174 -161.5 -262.5t-311.5 -88.5q-123 0 -225 45q-109 47 -182 134q-83 -92 -185 -136q-100 -43 -225 -43q-201 0 -305 90q-107 92 -107 258zM307 319q0 -111 68 -176q70 -66 184.5 -65.5t185.5 72.5 q70 70 70 184v225h-237q-133 0 -203 -59q-68 -58 -68 -181zM1030 618h576q-6 188 -78 281q-74 94 -209 94q-127 0 -201 -96q-72 -95 -88 -279z" />
<glyph unicode="&#xe7;" horiz-adv-x="1146" d="M102 532.5q0 253.5 142 407.5q139 152 372 152q109 0 201 -23q106 -27 201 -72v-272h-107q-20 139 -92 205q-70 63 -201 63q-147 0 -225 -116q-76 -115 -76 -345q0 -231 76 -346q78 -117 225 -116q120 0 191 61q72 61 96 188h148q-41 -172 -149.5 -260t-287.5 -88 q-231 0 -372.5 154t-141.5 407.5zM391 -240q35 -16 80 -26q35 -8 75 -8q57 0 90 26.5t33 71.5q0 27 -22 72q-18 39 -66 104h97q66 -66 96.5 -121t30.5 -104q0 -82 -64 -125q-68 -45 -174 -45q-43 0 -86 6q-45 6 -90 18v131z" />
<glyph unicode="&#xe8;" horiz-adv-x="1210" d="M102 532q0 250 140 406q139 154 364 154q242 0 371 -148q127 -145 133 -432h-793v-8q0 -213 80 -323.5t240 -110.5q123 0 199 63q78 66 108 189h148q-43 -174 -162 -262.5t-312 -88.5q-233 0 -374.5 153.5t-141.5 407.5zM317 618h576q-6 188 -78 281q-74 94 -209 94 q-127 0 -200 -96q-73 -95 -89 -279zM264 1636h197l260 -376h-117z" />
<glyph unicode="&#xe9;" horiz-adv-x="1210" d="M102 532q0 250 140 406q139 154 364 154q242 0 371 -148q127 -145 133 -432h-793v-8q0 -213 80 -323.5t240 -110.5q123 0 199 63q78 66 108 189h148q-43 -174 -162 -262.5t-312 -88.5q-233 0 -374.5 153.5t-141.5 407.5zM317 618h576q-6 188 -78 281q-74 94 -209 94 q-127 0 -200 -96q-73 -95 -89 -279zM487 1262l258 376h199l-340 -376h-117z" />
<glyph unicode="&#xea;" horiz-adv-x="1210" d="M102 532q0 250 140 406q139 154 364 154q242 0 371 -148q127 -145 133 -432h-793v-8q0 -213 80 -323.5t240 -110.5q123 0 199 63q78 66 108 189h148q-43 -174 -162 -262.5t-312 -88.5q-233 0 -374.5 153.5t-141.5 407.5zM317 618h576q-6 188 -78 281q-74 94 -209 94 q-127 0 -200 -96q-73 -95 -89 -279zM287 1262l235 376h168l235 -376h-116l-203 260l-203 -260h-116z" />
<glyph unicode="&#xeb;" horiz-adv-x="1210" d="M102 532q0 250 140 406q139 154 364 154q242 0 371 -148q127 -145 133 -432h-793v-8q0 -213 80 -323.5t240 -110.5q123 0 199 63q78 66 108 189h148q-43 -174 -162 -262.5t-312 -88.5q-233 0 -374.5 153.5t-141.5 407.5zM317 618h576q-6 188 -78 281q-74 94 -209 94 q-127 0 -200 -96q-73 -95 -89 -279zM295 1452q0 47 34.5 82t82 35t82 -35t34.5 -82q0 -51 -32.5 -84t-84 -33t-84 33t-32.5 84zM684 1452q0 47 34.5 82t82 35t82 -35t34.5 -82q0 -51 -32.5 -84t-84 -33t-84 33t-32.5 84z" />
<glyph unicode="&#xec;" horiz-adv-x="653" d="M434 106h174v-106h-534v106h176v850h-176v107h360v-957zM-14 1636h197l260 -376h-117z" />
<glyph unicode="&#xed;" horiz-adv-x="653" d="M434 106h174v-106h-534v106h176v850h-176v107h360v-957zM209 1262l258 376h199l-340 -376h-117z" />
<glyph unicode="&#xee;" horiz-adv-x="653" d="M434 106h174v-106h-534v106h176v850h-176v107h360v-957zM9 1262l235 376h168l235 -376h-116l-203 260l-203 -260h-116z" />
<glyph unicode="&#xef;" horiz-adv-x="653" d="M434 106h174v-106h-534v106h176v850h-176v107h360v-957zM17 1452q0 47 34.5 82t82 35t82 -35t34.5 -82q0 -51 -32.5 -84t-84 -33t-84 33t-32.5 84zM406 1452q0 47 34.5 82t82 35t82 -35t34.5 -82q0 -51 -32.5 -84t-84 -33t-84 33t-32.5 84z" />
<glyph unicode="&#xf0;" horiz-adv-x="1232" d="M102 518q0 237 142 381q141 145 368 145q23 0 72 -4q61 -4 90 -10q-23 53 -59 107q-41 57 -86 108l-322 -149l-37 78l293 135q-63 61 -139 98q-88 45 -174 63l18 86q104 -23 224 -73q100 -45 196 -115l322 150l37 -78l-287 -133q184 -166 276 -363q94 -201 94 -412 q0 -254 -141 -407.5t-372.5 -153.5t-373 151.5t-141.5 395.5zM317 508q0 -213 78 -324q80 -115 221 -114q143 0 221 114.5t78 327.5q0 113 -24 217q-27 113 -70 199q-63 12 -86 14q-53 4 -80 4q-174 0 -256 -106.5t-82 -331.5z" />
<glyph unicode="&#xf1;" horiz-adv-x="1318" d="M74 956v107h360v-189q53 109 133 162q84 55 189 56q178 0 260 -100.5t82 -315.5v-570h164v-106h-508v106h159v512q0 193 -49 266.5t-168 73.5q-125 0 -194 -94q-68 -92 -68 -272v-486h160v-106h-510v106h166v850h-176zM329 1309q4 137 54 209q51 74 141 73q41 0 69 -14 q41 -20 70 -47l57 -55q23 -23 39.5 -31t38.5 -8q43 0 68 41q23 39 26 114h97q-4 -137 -54 -209q-51 -74 -141 -73q-41 0 -69 14q-41 20 -70 47l-57 55q-23 23 -43.5 31t-34.5 8q-41 0 -66 -39q-23 -37 -28 -116h-97z" />
<glyph unicode="&#xf2;" horiz-adv-x="1232" d="M102 532q0 254 140 406q141 154 374 154q231 0 372.5 -154t141.5 -406q0 -254 -141 -407.5t-372.5 -153.5t-373 153.5t-141.5 407.5zM317 532q0 -231 76 -346q78 -117 223.5 -116.5t223.5 116.5q76 115 75 346q0 229 -75 345q-78 117 -223.5 116.5t-223.5 -116.5 q-76 -116 -76 -345zM274 1636h197l260 -376h-117z" />
<glyph unicode="&#xf3;" horiz-adv-x="1232" d="M102 532q0 254 140 406q141 154 374 154q231 0 372.5 -154t141.5 -406q0 -254 -141 -407.5t-372.5 -153.5t-373 153.5t-141.5 407.5zM317 532q0 -231 76 -346q78 -117 223.5 -116.5t223.5 116.5q76 115 75 346q0 229 -75 345q-78 117 -223.5 116.5t-223.5 -116.5 q-76 -116 -76 -345zM497 1262l258 376h199l-340 -376h-117z" />
<glyph unicode="&#xf4;" horiz-adv-x="1232" d="M102 532q0 254 140 406q141 154 374 154q231 0 372.5 -154t141.5 -406q0 -254 -141 -407.5t-372.5 -153.5t-373 153.5t-141.5 407.5zM317 532q0 -231 76 -346q78 -117 223.5 -116.5t223.5 116.5q76 115 75 346q0 229 -75 345q-78 117 -223.5 116.5t-223.5 -116.5 q-76 -116 -76 -345zM297 1262l235 376h168l235 -376h-116l-203 260l-203 -260h-116z" />
<glyph unicode="&#xf5;" horiz-adv-x="1232" d="M102 532q0 254 140 406q141 154 374 154q231 0 372.5 -154t141.5 -406q0 -254 -141 -407.5t-372.5 -153.5t-373 153.5t-141.5 407.5zM317 532q0 -231 76 -346q78 -117 223.5 -116.5t223.5 116.5q76 115 75 346q0 229 -75 345q-78 117 -223.5 116.5t-223.5 -116.5 q-76 -116 -76 -345zM286 1309q4 137 54 209q51 74 141 73q41 0 69 -14q41 -20 70 -47l57 -55q23 -23 39.5 -31t38.5 -8q43 0 68 41q23 39 26 114h97q-4 -137 -54 -209q-51 -74 -141 -73q-41 0 -69 14q-41 20 -70 47l-57 55q-23 23 -43.5 31t-34.5 8q-41 0 -66 -39 q-23 -37 -28 -116h-97z" />
<glyph unicode="&#xf6;" horiz-adv-x="1232" d="M102 532q0 254 140 406q141 154 374 154q231 0 372.5 -154t141.5 -406q0 -254 -141 -407.5t-372.5 -153.5t-373 153.5t-141.5 407.5zM317 532q0 -231 76 -346q78 -117 223.5 -116.5t223.5 116.5q76 115 75 346q0 229 -75 345q-78 117 -223.5 116.5t-223.5 -116.5 q-76 -116 -76 -345zM305 1452q0 47 34.5 82t82 35t82 -35t34.5 -82q0 -51 -32.5 -84t-84 -33t-84 33t-32.5 84zM694 1452q0 47 34.5 82t82 35t82 -35t34.5 -82q0 -51 -32.5 -84t-84 -33t-84 33t-32.5 84z" />
<glyph unicode="&#xf7;" horiz-adv-x="1714" d="M217 561v162h1282v-162h-1282zM725 272q0 55 39 94.5t94 39.5t94 -39t39 -94.5t-39 -94.5t-94 -39q-57 0 -94 39q-39 43 -39 94zM725 1011.5q0 55.5 39 94.5t94 39t94 -39t39 -94.5t-39 -94t-94 -38.5t-94 38.5t-39 94z" />
<glyph unicode="&#xf8;" horiz-adv-x="1232" d="M76 -31l149 178q-61 77 -92 172q-31 94 -31 213q0 254 140 406q141 154 374 154q94 0 175 -25q74 -23 143 -76l139 166l76 -63l-145 -172q66 -78 94 -172q33 -104 32 -218q0 -254 -141 -407.5t-373 -153.5q-96 0 -174 27q-86 31 -147 80l-143 -172zM317 532q0 -74 7 -131 q6 -55 22 -108l494 586q-37 57 -94.5 85.5t-129.5 28.5q-145 0 -223 -116q-76 -116 -76 -345zM391 190q37 -57 96 -90q55 -31 129 -30q145 0 224 118q76 115 75 344q0 53 -8 136q-6 55 -22 112z" />
<glyph unicode="&#xf9;" horiz-adv-x="1318" d="M55 956v107h351v-619q0 -195 47 -266.5t170 -71.5q127 0 194.5 94.5t67.5 272.5v483h-160v107h344v-957h174v-106h-358v188q-51 -106 -131 -161.5t-189 -55.5q-178 0 -260 101q-84 102 -84 315v569h-166zM242 1636h197l260 -376h-117z" />
<glyph unicode="&#xfa;" horiz-adv-x="1318" d="M55 956v107h351v-619q0 -195 47 -266.5t170 -71.5q127 0 194.5 94.5t67.5 272.5v483h-160v107h344v-957h174v-106h-358v188q-51 -106 -131 -161.5t-189 -55.5q-178 0 -260 101q-84 102 -84 315v569h-166zM465 1262l258 376h199l-340 -376h-117z" />
<glyph unicode="&#xfb;" horiz-adv-x="1318" d="M55 956v107h351v-619q0 -195 47 -266.5t170 -71.5q127 0 194.5 94.5t67.5 272.5v483h-160v107h344v-957h174v-106h-358v188q-51 -106 -131 -161.5t-189 -55.5q-178 0 -260 101q-84 102 -84 315v569h-166zM265 1262l235 376h168l235 -376h-116l-203 260l-203 -260h-116z " />
<glyph unicode="&#xfc;" horiz-adv-x="1318" d="M55 956v107h351v-619q0 -195 47 -266.5t170 -71.5q127 0 194.5 94.5t67.5 272.5v483h-160v107h344v-957h174v-106h-358v188q-51 -106 -131 -161.5t-189 -55.5q-178 0 -260 101q-84 102 -84 315v569h-166zM273 1452q0 47 34.5 82t82 35t82 -35t34.5 -82q0 -51 -32.5 -84 t-84 -33t-84 33t-32.5 84zM662 1452q0 47 34.5 82t82 35t82 -35t34.5 -82q0 -51 -32.5 -84t-84 -33t-84 33t-32.5 84z" />
<glyph unicode="&#xfd;" horiz-adv-x="1155" d="M-6 956v107h489v-107h-170l299 -731l299 731h-159v107h399v-107h-119l-487 -1196q-49 -125 -111 -170q-59 -45 -172 -45q-53 0 -96 9q-72 12 -100 22v203h94q6 -66 35 -98q27 -29 88 -29q53 0 88 31q35 33 71 122l70 177l-397 974h-121zM461 1262l258 376h199l-340 -376 h-117z" />
<glyph unicode="&#xfe;" horiz-adv-x="1310" d="M59 -319h177v1769h-177v106h361v-659q55 102 137 147q84 47 207 48q197 0 319 -154q125 -156 125 -406q0 -246 -125 -405q-123 -156 -319 -156q-123 0 -207 47q-82 45 -137 148v-485h174v-107h-535v107zM420 479q0 -193 73.5 -293t213 -100t213 112.5t73.5 334t-73 331.5 q-76 113 -213 113q-139 0 -213 -100q-74 -102 -74 -293v-105z" />
<glyph unicode="&#xff;" horiz-adv-x="1155" d="M-6 956v107h489v-107h-170l299 -731l299 731h-159v107h399v-107h-119l-487 -1196q-49 -125 -111 -170q-59 -45 -172 -45q-53 0 -96 9q-72 12 -100 22v203h94q6 -66 35 -98q27 -29 88 -29q53 0 88 31q35 33 71 122l70 177l-397 974h-121zM269 1452q0 47 34.5 82t82 35 t82 -35t34.5 -82q0 -51 -32.5 -84t-84 -33t-84 33t-32.5 84zM658 1452q0 47 34.5 82t82 35t82 -35t34.5 -82q0 -51 -32.5 -84t-84 -33t-84 33t-32.5 84z" />
<glyph unicode="&#x131;" horiz-adv-x="653" d="M434 106h174v-106h-534v106h176v850h-176v107h360v-957z" />
<glyph unicode="&#x152;" horiz-adv-x="2328" d="M119 750q0 350 215 546.5t602 196.5h1212v-332h-123v209h-686v-500h492v187h121v-496h-121v187h-492v-625h703v209h123v-332h-1229q-383 0 -600 199t-217 551zM348 750q0 -313 156 -478q156 -166 446 -166h187v1280h-187q-293 0 -446 -163q-156 -166 -156 -473z" />
<glyph unicode="&#x153;" horiz-adv-x="2023" d="M102 532q0 254 140 406q141 154 374 154q131 0 236 -50q98 -47 172 -145q78 98 172 145q102 49 223 50q242 0 371 -148q127 -145 133 -432h-793v-8q0 -213 80 -323.5t240 -110.5q123 0 199 63q78 66 108 189h148q-43 -174 -162 -262.5t-311 -88.5q-129 0 -233.5 49.5 t-176.5 145.5q-70 -96 -172 -146q-104 -49 -234 -49q-231 0 -372.5 153.5t-141.5 407.5zM317 532q0 -231 76 -346q78 -117 223.5 -116.5t223.5 116.5q76 115 75 346q0 229 -75 345q-78 117 -223.5 116.5t-223.5 -116.5q-76 -116 -76 -345zM1130 618h576q-6 188 -78 281 q-74 94 -209 94q-127 0 -200 -96q-73 -95 -89 -279z" />
<glyph unicode="&#x178;" horiz-adv-x="1351" d="M-23 1386v107h555v-107h-174l373 -604l373 604h-168v107h434v-107h-141l-449 -724v-556h191v-106h-584v106h191v537l-461 743h-140zM481.5 1884q47.5 0 82 -34.5t34.5 -81.5q0 -51 -32.5 -84t-84.5 -33q-49 0 -81 33q-35 35 -35 84q0 47 34.5 81.5t82 34.5zM870.5 1884 q47.5 0 82 -34.5t34.5 -81.5q0 -49 -35 -84q-33 -33 -81 -33q-51 0 -84 32.5t-33 84.5q0 47 34.5 81.5t82 34.5z" />
<glyph unicode="&#x2c6;" horiz-adv-x="1024" d="M193 1262l235 376h168l235 -376h-116l-203 260l-203 -260h-116z" />
<glyph unicode="&#x2da;" horiz-adv-x="1024" d="M786 1524q0 -115 -79.5 -195t-194.5 -80t-194.5 80t-79.5 194.5t79.5 194.5t194.5 80t194.5 -79.5t79.5 -194.5zM664 1524q0 63 -43 106q-45 45 -109 45q-66 0 -109 -43t-43 -108.5t43 -108.5t109 -43t109 43t43 109z" />
<glyph unicode="&#x2dc;" horiz-adv-x="1024" d="M182 1309q4 137 54 209q51 74 141 73q41 0 69 -14q41 -20 70 -47l57 -55q23 -23 39.5 -31t38.5 -8q43 0 68 41q23 39 26 114h97q-4 -137 -54 -209q-51 -74 -141 -73q-41 0 -69 14q-41 20 -70 47l-57 55q-23 23 -43.5 31t-34.5 8q-41 0 -66 -39q-23 -37 -28 -116h-97z" />
<glyph unicode="&#x2000;" horiz-adv-x="948" />
<glyph unicode="&#x2001;" horiz-adv-x="1900" />
<glyph unicode="&#x2002;" horiz-adv-x="948" />
<glyph unicode="&#x2003;" horiz-adv-x="1900" />
<glyph unicode="&#x2004;" horiz-adv-x="632" />
<glyph unicode="&#x2005;" horiz-adv-x="473" />
<glyph unicode="&#x2006;" horiz-adv-x="315" />
<glyph unicode="&#x2007;" horiz-adv-x="315" />
<glyph unicode="&#x2008;" horiz-adv-x="235" />
<glyph unicode="&#x2009;" horiz-adv-x="378" />
<glyph unicode="&#x200a;" horiz-adv-x="104" />
<glyph unicode="&#x2010;" horiz-adv-x="690" d="M90 471v156h512v-156h-512z" />
<glyph unicode="&#x2011;" horiz-adv-x="690" d="M90 471v156h512v-156h-512z" />
<glyph unicode="&#x2012;" horiz-adv-x="690" d="M90 471v156h512v-156h-512z" />
<glyph unicode="&#x2013;" horiz-adv-x="1024" d="M0 477v133h1024v-133h-1024z" />
<glyph unicode="&#x2014;" horiz-adv-x="2048" d="M0 477v133h2048v-133h-2048z" />
<glyph unicode="&#x2018;" horiz-adv-x="649" d="M209 1014q0 172 63 295q59 117 199 211l78 -80q-78 -66 -111 -150q-35 -88 -35 -213v-63h-194z" />
<glyph unicode="&#x2019;" horiz-adv-x="649" d="M145 1067q80 68 113 150q35 88 35 215v61h194q0 -176 -63 -295q-66 -121 -201 -211z" />
<glyph unicode="&#x201a;" horiz-adv-x="649" d="M90 -199q96 68 139 162q43 92 43 227v37h197q-10 -176 -80 -293q-76 -127 -219 -213z" />
<glyph unicode="&#x201c;" horiz-adv-x="1046" d="M209 1014q0 172 63 295q59 117 199 211l78 -80q-78 -66 -111 -150q-35 -88 -35 -213v-63h-194zM604 1014q4 178 63.5 294.5t198.5 211.5l78 -80q-78 -66 -110 -150q-35 -88 -35 -213v-63h-195z" />
<glyph unicode="&#x201d;" horiz-adv-x="1046" d="M145 1067q80 68 113 150q35 88 35 215v61h194q0 -176 -63 -295q-66 -121 -201 -211zM543 1067q78 66 110 150q35 88 35 213v63h195q0 -172 -64 -295q-59 -117 -198 -211z" />
<glyph unicode="&#x201e;" horiz-adv-x="1060" d="M90 -199q96 68 139 162q43 92 43 227v37h197q-10 -176 -80 -293q-76 -127 -219 -213zM485 -199q96 68 140 162q43 92 43 227v37h196q-6 -170 -80 -293q-76 -127 -219 -213z" />
<glyph unicode="&#x2022;" horiz-adv-x="1206" d="M307 762q0 123 86 209t213 86q123 0 209 -86t86 -209q0 -125 -86 -211q-88 -88 -211 -88q-125 0 -211 86t-86 213z" />
<glyph unicode="&#x2026;" horiz-adv-x="2048" d="M209 104q0 55 39 94.5t94 39.5t94 -39t39 -94.5t-39 -94.5t-94 -39q-57 0 -94 39q-39 43 -39 94zM891 104q0 55 39 94.5t94 39.5t94 -39t39 -94.5t-39 -94.5t-94 -39q-57 0 -94 39q-39 43 -39 94zM1573 104q0 55 39 94.5t94 39.5t94 -39t39 -94.5t-39 -94.5t-94 -39 q-57 0 -94 39q-39 43 -39 94z" />
<glyph unicode="&#x202f;" horiz-adv-x="378" />
<glyph unicode="&#x2039;" horiz-adv-x="817" d="M158 559v82l469 418v-115l-297 -344l297 -344v-115z" />
<glyph unicode="&#x203a;" horiz-adv-x="817" d="M193 141v115l296 344l-296 344v115l469 -418v-82z" />
<glyph unicode="&#x205f;" horiz-adv-x="473" />
<glyph unicode="&#x20ac;" d="M-8 539l45 104h135q0 4 -1 17.5t-1 21.5q-2 33 -2 63q0 12 1 31t1 27q0 33 2 47h-180l45 104h145q45 262 183 414q135 152 325 152q100 0 199 -31q94 -29 223 -100v-342h-106q-20 180 -97 276q-78 98 -198 98q-137 0 -219 -118q-80 -117 -103 -349h504l-47 -104h-463 q0 -4 -1 -16.5t-1 -20.5q-2 -35 -2 -68l1 -14q1 -14 1 -29v-59h375l-47 -104h-320q20 -227 104.5 -348t217.5 -121q115 0 192 84q76 82 101 241h133q-43 -207 -158 -315.5t-289 -108.5q-190 0 -325 152q-137 152 -183 416h-190z" />
<glyph unicode="&#x2122;" horiz-adv-x="2048" d="M242 1323v170h557v-170h-68v104h-153v-446h86v-66h-287v66h86v446h-156v-104h-65zM885 915v66h86v446h-86v66h233l174 -270l181 270h219v-66h-86v-446h86v-66h-285v66h86v426l-209 -311h-43l-199 311v-426h84v-66h-241z" />
<glyph unicode="&#x2215;" horiz-adv-x="339" d="M567 1520h150l-942 -1549h-150z" />
<glyph unicode="&#xe000;" horiz-adv-x="1065" d="M0 1065h1065v-1065h-1065v1065z" />
<glyph unicode="&#xfb01;" horiz-adv-x="1363" d="M74 0v106h176v850h-176v107h176v96q0 197 117 297q115 100 346 100q70 0 178 -14q96 -12 180 -39v-217h-94q-4 86 -64 129q-61 43 -184 43q-152 0 -223.5 -71.5t-71.5 -223.5v-100h711v-957h174v-106h-535v106h177v850h-527v-850h174v-106h-534z" />
<glyph unicode="&#xfb02;" horiz-adv-x="1363" d="M74 0v106h176v850h-176v107h176v96q0 201 118.5 299t364.5 98h397v-1450h175v-106h-535v106h176v1344h-215q-160 0 -229 -66q-68 -65 -68 -221v-100h295v-107h-295v-850h174v-106h-534z" />
<glyph unicode="&#xfb03;" horiz-adv-x="2170" d="M1590 0v106h176v850h-176v107h360v-957h174v-106h-534zM1715 1393q0 45 34.5 79.5t79.5 34.5t80 -34q33 -33 33 -80t-33 -80t-80 -33t-80 33q-34 35 -34 80zM832 0v106h176v850h-176v107h176v133q0 176 92 268t272 92q66 0 134 -12q70 -12 133 -37v-202h-97q0 76 -43 114 q-41 39 -120 39q-100 0 -146 -57q-41 -53 -41 -201v-137h297v-107h-297v-850h236v-106h-596zM74 0v106h176v850h-176v107h176v133q0 176 92 268t272 92q66 0 134 -12q70 -12 133 -37v-202h-97q0 76 -43 114q-41 39 -120 39q-100 0 -146 -57q-41 -53 -41 -201v-137h297v-107 h-297v-850h236v-106h-596z" />
<glyph unicode="&#xfb04;" horiz-adv-x="2170" d="M1575 0v106h177v1344h-177v106h361v-1450h174v-106h-535zM832 0v106h176v850h-176v107h176v133q0 176 92 268t272 92q66 0 134 -12q70 -12 133 -37v-202h-97q0 76 -43 114q-41 39 -120 39q-100 0 -146 -57q-41 -53 -41 -201v-137h297v-107h-297v-850h236v-106h-596zM74 0 v106h176v850h-176v107h176v133q0 176 92 268t272 92q66 0 134 -12q70 -12 133 -37v-202h-97q0 76 -43 114q-41 39 -120 39q-100 0 -146 -57q-41 -53 -41 -201v-137h297v-107h-297v-850h236v-106h-596z" />
<glyph horiz-adv-x="1024" d="M317.5 1511q47.5 0 82 -34.5t34.5 -81.5q0 -51 -32.5 -84t-84.5 -33q-49 0 -81 33q-35 35 -35 84q0 47 34.5 81.5t82 34.5zM706.5 1511q47.5 0 82 -34.5t34.5 -81.5q0 -49 -35 -84q-33 -33 -81 -33q-51 0 -84 32.5t-33 84.5q0 47 34.5 81.5t82 34.5z" />
<glyph horiz-adv-x="1024" d="M575 1526h197l-262 -264h-117z" />
<glyph horiz-adv-x="1024" d="M500 1341l-49 29q-31 18 -41 21q-20 6 -37 6q-41 0 -66 -29q-27 -29 -28 -74h-97q4 104 54 160q53 59 135 59q33 0 67.5 -10t85.5 -39l49 -26q27 -14 45 -21q20 -6 39 -6q39 0 64 27q25 29 24 75h97q-4 -106 -54 -161q-51 -57 -145 -58q-70 0 -139 45z" />
<glyph horiz-adv-x="1024" d="M442 1526l183 -264h-117l-262 264h196z" />
<glyph horiz-adv-x="1024" d="M424 1526h176l231 -264h-116l-203 161l-203 -161h-116z" />
<glyph horiz-adv-x="819" d="M451 971v407l-308 -407h308zM739 668h-434v84h146v137h-398v84l400 530h141v-532h164v-82h-164v-137h145v-84z" />
</font>
</defs>
</svg>
